img image001 image001 image001 image001 image001 image001 image001 image001 image001 image001 image001 image001 image001 image001 image001 image001

Planets Sun Sun Sun
Статистика раздачи
Автор: Снежана | Размер: 6.67 ГБ | Добавлен: 14 авг 2018
Раздают: 18    Качают: 2
Скачать торрент
Скачать торрент
Описание торрента

СообщениеДобавлено: 14 авг 2018 

Информация о фильме
Название: Секс и император
Оригинальное название: Man qing jin gong qi an
Год выпуска: 1994
Жанр: Драма, комедия, биография, исторический, эротика
Режиссер: Шерман Вонг
В ролях: Сан Пун Чан, Юн Хан, Ли Ват Ит, Ян Кин Тан, Лью Си Хо, Кьян Джон
О фильме: В императорском дворце всегда было множество наложниц, готовых удовлетворить любые желания своего повелителя. Двор молодого императора Тан Зи из династии Квин не был исключением. Сексуальные развлечения были любимым времяпрепровождением молодого императора. Но была в его жизни и настоящая, скрытая от постоянных глаз любовь. Радость и боль, любовь и ненависть, наивность и коварство, дружба и предательство, доброта и беспредельная жестокость, а всё вместе - жизнь при дворе императора.

Страна: Гонконг
Студия: China Star Entertainment Group
Продолжительность: 01:32:46
Перевод: Авторский (одноголосый) Владимир Сонькин
Файл
Кодек: MPEG-4 AVC
Качество: BDRip (1080p)
Видео: 9461 Кбит/с, 1920x1032
Звук: Русский (AC3, 2 ch, 192 Кбит/с), китайский (AC3, 6 ch, 640 Кбит/с)
Субтитры: Английские



Общее
Уникальный идентификатор : 171545233693333105880079273353922503498 (0x810E6905671B8F81484442927114634A)
Полное имя : E:Sex.And.The.Emperor.1996.BDRip 1080p.mkv
Формат : Matroska
Версия формата : Version 4 / Version 2
Размер файла : 6,67 Гбайт
Продолжительность : 1 ч. 32 м.
Общий поток : 10,3 Мбит/сек
Название фильма : Sex.And.The.Emperor.1996.BDRip 1080p
Дата кодирования : UTC 2018-08-05 10:34:31
Программа кодирования : mkvmerge v22.0.0 ('At The End Of The World') 64-bit
Библиотека кодирования : libebml v1.3.5 + libmatroska v1.4.8
DURATION : 01:32:41.600000000
NUMBER_OF_FRAMES : 173800
NUMBER_OF_BYTES : 133478400
_STATISTICS_WRITING_APP : mkvmerge v22.0.0 ('At The End Of The World') 64-bit
_STATISTICS_WRITING_DATE_UTC : 2018-08-05 10:34:31
_STATISTICS_TAGS : BPS DURATION NUMBER_OF_FRAMES NUMBER_OF_BYTES
Видео
Идентификатор : 1
Формат : AVC
Формат/Информация : Advanced Video Codec
Профиль формата : High@L4.1
Параметр CABAC формата : Да
Параметр ReFrames формата : 4 кадра
Идентификатор кодека : V_MPEG4/ISO/AVC
Продолжительность : 1 ч. 32 м.
Битрейт : 9461 Кбит/сек
Ширина : 1920 пикселей
Высота : 1032 пикселя
Соотношение сторон : 1,85:1
Режим частоты кадров : Постоянный
Частота кадров : 24,000 кадра/сек
Цветовое пространство : YUV
Субдискретизация насыщенности : 4:2:0
Битовая глубина : 8 бит
Тип развёртки : Прогрессивная
Бит/(Пиксели*Кадры) : 0.199
Размер потока : 6,00 Гбайт (90%)
Заголовок : Sex.And.The.Emperor.1996.BDRip 1080p
Библиотека кодирования : x264 core 115 r1937 aa21558
Настройки программы : cabac=1 / ref=4 / deblock=1:-1:-1 / analyse=0x3:0x113 / me=umh / subme=7 / psy=1 / psy_rd=1.00:0.00 / mixed_ref=1 / me_range=16 / chroma_me=1 / trellis=1 / 8x8dct=1 / cqm=0 / deadzone=21,11 / fast_pskip=1 / chroma_qp_offset=-2 / threads=12 / sliced_threads=0 / nr=0 / decimate=1 / interlaced=0 / bluray_compat=0 / constrained_intra=0 / bframes=3 / b_pyramid=2 / b_adapt=2 / b_bias=0 / direct=3 / weightb=1 / open_gop=0 / weightp=2 / keyint=250 / keyint_min=24 / scenecut=40 / intra_refresh=0 / rc_lookahead=40 / rc=2pass / mbtree=1 / bitrate=9461 / ratetol=1.0 / qcomp=0.60 / qpmin=0 / qpmax=69 / qpstep=4 / cplxblur=20.0 / qblur=0.5 / vbv_maxrate=50000 / vbv_bufsize=50000 / nal_hrd=none / ip_ratio=1.40 / aq=1:1.00
Язык : Chinese
Default : Да
Forced : Да
Аудио #1
Идентификатор : 2
Формат : AC-3
Формат/Информация : Audio Coding 3
Расширение режима : CM (complete main)
Параметр Endianness формата : Big
Идентификатор кодека : A_AC3
Продолжительность : 1 ч. 32 м.
Вид битрейта : Постоянный
Битрейт : 192 Кбит/сек
Каналы : 2 канала
Расположение каналов : Front: L R
Частота : 48,0 КГц
Битовая глубина : 16 бит
Метод сжатия : С потерями
Размер потока : 127 Мбайт (2%)
Заголовок : Авторский (одноголосый) Владимир Сонькин
Язык : Russian
Default : Да
Forced : Да
Аудио #2
Идентификатор : 3
Формат : AC-3
Формат/Информация : Audio Coding 3
Расширение режима : CM (complete main)
Параметр Endianness формата : Big
Идентификатор кодека : A_AC3
Продолжительность : 1 ч. 32 м.
Вид битрейта : Постоянный
Битрейт : 640 Кбит/сек
Каналы : 6 каналов
Расположение каналов : Front: L C R, Side: L R, LFE
Частота : 48,0 КГц
Битовая глубина : 16 бит
Метод сжатия : С потерями
Размер потока : 425 Мбайт (6%)
Заголовок : Original
Язык : Chinese
Default : Нет
Forced : Нет
Текст
Идентификатор : 4
Формат : UTF-8
Идентификатор кодека : S_TEXT/UTF8
Идентификатор кодека/Информация : UTF-8 Plain Text
Язык : English
Default : Нет
Forced : Нет

Релиз от: За авторскую дорожку благодарим xelon2006



   Похожие торренты   Торрент   Размер 
В этой теме нет новых непрочитанных сообщений. Секс и император / Man qing jin gong qi an / Sex and the emperor (1994) DVDRip | L1

81 | 40

661.13 МБ

В этой теме нет новых непрочитанных сообщений. Секс и император / Man qing jin gong qi an / Sex and the emperor (Шерман Вон) [1994, драма, комедия, HDRip] VO

12 | 0

1.45 ГБ

В этой теме нет новых непрочитанных сообщений. Император / Emperor (2012) BDRip 1080p от CINEMANIA | P

157 | 49

10.65 ГБ

В этой теме нет новых непрочитанных сообщений. Император / Emperor (2012) BDRemux 1080p | P, L2, L1

41 | 31

18.33 ГБ

В этой теме нет новых непрочитанных сообщений. Император / Emperor (2012) BDRip-AVC от HELLYWOOD | P

329 | 68

2.18 ГБ

В этой теме нет новых непрочитанных сообщений. Император / Emperor (2012) BDRip 720p от CINEMANIA | P

161 | 62

7.77 ГБ

В этой теме нет новых непрочитанных сообщений. Император / Emperor (2012) BDRip-AVC от HQCLUB | FRA Transfer

189 | 31

2.18 ГБ




Вы не можете начинать темы
Вы не можете отвечать на сообщения
Вы не можете редактировать свои сообщения
Вы не можете удалять свои сообщения
Вы не можете добавлять вложения

Перейти:  
 Вход
ppkBB3cker v.2 © 2008-2014 @ PPK
[ Time : 0.049s | 19 Queries | GZIP : Off ]

cron