img image001 image001 image001 image001 image001 image001 image001 image001 image001 image001 image001 image001 image001 image001 image001 image001

Planets Sun Sun Sun
Статистика раздачи
Автор: Снежана | Размер: 7.09 ГБ | Добавлен: 14 авг 2018
Раздают: 8    Качают: 0
Скачать торрент
Скачать торрент
Описание торрента

СообщениеДобавлено: 14 авг 2018 

Информация о фильме
Название: Дикарь / Одиночка / Повеса за городом
Оригинальное название: Wild in the Country
Год выпуска: 1961
Выпущено: США, 20th Century Fox Film Corporation, The Company of Artists
Жанр: Драма, мюзикл, мелодрама, экранизация
Режиссер: Филип Данн
В ролях: Элвис Пресли, Хоуп Лэнг, Тьюзди Уэлд, Милли Перкинс, Рэфер Джонсон, Джон Айрленд (I), Гэри Локвуд, Уильям Мимс, Рэймонд Гринлиф, Кристина Кроуфорд, Робин Рэймонд, Чарльз Арнт, Марк Бэйли, Уолтер Болдуин, Пэт Баттрем, Гарри Картер, Линден Чайлз, Уилл Корри, Руби Гудвин, Сэм Харрис, Кеннер Дж. Кемп, Майк Лэлли, Дарлин Лэнг, Алан Напье, Джек Оррисон, Джейсон Робардс ст., Космо Сардо, Гарри Шэннон, Фрэнки Сильвер, Ред Уэст
О фильме:
После драки со своим братом, Гленн Тайлер (Элвис Пресли) убегает, думая, что он убил его и попадает в суд, где власти пытаются решить, что делать с беспокойным молодым человеком, тем более, что его отец чувствует, что не может справиться с Гленном. Суд направил его на работу к родственнику, а также суд обязал Гленна ходить на консультации к психиатру, которой уж очень понравился этот молодой человек. Однажды Гленн обнаруживает, что у него есть умение писать, и психолог рекомендует ему начать литературную карьеру. Но в его жизни появляется три женщины, которым симпатизирует Гленн, а настоящие чувства у него только к одной... Экранизация по произведению: Д. Саламанка.
Продолжительность: 01:54:16
Перевод: Профессиональный многоголосый, авторский
Субтитры: Английские, французские, немецкие
Навигация по главам: Есть
Файл
Качество: BDRip 720p
Видео: MPEG-4 AVC, 8112 Кбит/сек, 1280x544, 23,976 кадра/сек
Аудио #1: AC3, 2 ch, 192 Кбит/сек | Русский, профессиональный (многоголосый закадровый)
Аудио #2: AC3, 2 ch, 192 Кбит/сек | Русский, авторский (одноголосый закадровый) Сергей Визгунов
Аудио #3: AC3, 2 ch, 384 Кбит/сек | Английский, оригинал


x264 [info]: frame I:1029 Avg QP:17.70 size:120550
x264 [info]: frame P:23592 Avg QP:19.92 size: 60768
x264 [info]: frame B:139750 Avg QP:22.11 size: 38592
-----------------------------------------------------
Общее
Уникальный идентификатор : 184413414879444318321123318762449434712 (0x8ABCBB5658DE61268FF7C18B99147858)
Полное имя : Одиночка.1961.BDRip.720p.KORSAR.mkv
Формат : Matroska
Версия формата : Version 2
Размер файла : 7,09 Гбайт
Продолжительность : 1 ч. 54 м.
Общий поток : 8882 Кбит/сек
Дата кодирования : UTC 2018-08-12 10:33:55
Программа кодирования : mkvmerge v5.8.0 ('No Sleep / Pillow') built on Sep 2 2012 15:37:04
Библиотека кодирования : libebml v1.2.3 + libmatroska v1.3.0
Видео
Идентификатор : 1
Формат : AVC
Формат/Информация : Advanced Video Codec
Профиль формата : High@L4.1
Настройки формата : CABAC / 12 Ref Frames
Параметр CABAC формата : Да
Параметр RefFrames формата : 12 кадров
Идентификатор кодека : V_MPEG4/ISO/AVC
Продолжительность : 1 ч. 54 м.
Битрейт : 8112 Кбит/сек
Ширина : 1280 пикселей
Высота : 544 пикселя
Соотношение сторон : 2,35:1
Режим частоты кадров : Постоянный
Частота кадров : 23,976 (24000/1001) кадра/сек
Цветовое пространство : YUV
Субдискретизация насыщенности : 4:2:0
Битовая глубина : 8 бит
Тип развёртки : Прогрессивная
Бит/(Пиксели*Кадры) : 0.486
Размер потока : 6,33 Гбайт (89%)
Заголовок : RIP | MZMA
Библиотека кодирования : x264 core 152 r2851kMod ba24899
Настройки программы : cabac=1 / ref=12 / deblock=1:-2:-2 / analyse=0x3:0x113 / me=umh / subme=11 / psy=1 / fade_compensate=0.00 / psy_rd=1.00:0.00 / mixed_ref=1 / me_range=48 / chroma_me=1 / trellis=2 / 8x8dct=1 / cqm=0 / deadzone=21,11 / fast_pskip=0 / chroma_qp_offset=-2 / threads=6 / lookahead_threads=1 / sliced_threads=0 / nr=0 / decimate=0 / interlaced=0 / bluray_compat=0 / constrained_intra=0 / bframes=16 / b_pyramid=2 / b_adapt=2 / b_bias=0 / direct=3 / weightb=1 / open_gop=0 / weightp=2 / keyint=240 / keyint_min=23 / scenecut=40 / intra_refresh=0 / rc_lookahead=40 / rc=2pass / mbtree=0 / bitrate=8112 / ratetol=1.0 / qcomp=0.60 / qpmin=0 / qpmax=69 / qpstep=4 / cplxblur=20.0 / qblur=0.5 / vbv_maxrate=50000 / vbv_bufsize=62500 / nal_hrd=none / filler=0 / ip_ratio=1.40 / pb_ratio=1.30 / aq=1:1.00
Язык : English
По умолчанию : Да
Принудительно : Нет
Цветовой диапазон : Limited
Основные цвета : BT.709
Характеристики трансфера : BT.709
Коэффициенты матрицы : BT.709
Аудио #1
Идентификатор : 2
Формат : AC-3
Формат/Информация : Audio Coding 3
Идентификатор кодека : A_AC3
Продолжительность : 1 ч. 54 м.
Вид битрейта : Постоянный
Битрейт : 192 Кбит/сек
Каналы : 2 канала
Расположение каналов : Front: L R
Частота : 48,0 КГц
Частота кадров : 31,250 кадров/сек (1536 SPF)
Битовая глубина : 16 бит
Метод сжатия : С потерями
Размер потока : 157 Мбайт (2%)
Заголовок : MVO
Язык : Russian
По умолчанию : Да
Принудительно : Нет
Аудио #2
Идентификатор : 3
Формат : AC-3
Формат/Информация : Audio Coding 3
Идентификатор кодека : A_AC3
Продолжительность : 1 ч. 54 м.
Вид битрейта : Постоянный
Битрейт : 192 Кбит/сек
Каналы : 2 канала
Расположение каналов : Front: L R
Частота : 48,0 КГц
Частота кадров : 31,250 кадров/сек (1536 SPF)
Битовая глубина : 16 бит
Метод сжатия : С потерями
Размер потока : 157 Мбайт (2%)
Заголовок : AVO | С. Визгунов
Язык : Russian
По умолчанию : Нет
Принудительно : Нет
Аудио #3
Идентификатор : 4
Формат : AC-3
Формат/Информация : Audio Coding 3
Идентификатор кодека : A_AC3
Продолжительность : 1 ч. 54 м.
Вид битрейта : Постоянный
Битрейт : 384 Кбит/сек
Каналы : 2 канала
Расположение каналов : Front: L R
Частота : 48,0 КГц
Частота кадров : 31,250 кадров/сек (1536 SPF)
Битовая глубина : 16 бит
Метод сжатия : С потерями
Размер потока : 314 Мбайт (4%)
Заголовок : Original
Язык : English
По умолчанию : Нет
Принудительно : Нет
Текст #1
Идентификатор : 5
Формат : UTF-8
Идентификатор кодека : S_TEXT/UTF8
Идентификатор кодека/Информация : UTF-8 Plain Text
Язык : English
По умолчанию : Нет
Принудительно : Нет
Текст #2
Идентификатор : 6
Формат : UTF-8
Идентификатор кодека : S_TEXT/UTF8
Идентификатор кодека/Информация : UTF-8 Plain Text
Заголовок : SDH
Язык : English
По умолчанию : Нет
Принудительно : Нет
Текст #3
Идентификатор : 7
Формат : UTF-8
Идентификатор кодека : S_TEXT/UTF8
Идентификатор кодека/Информация : UTF-8 Plain Text
Язык : French
По умолчанию : Нет
Принудительно : Нет
Текст #4
Идентификатор : 8
Формат : UTF-8
Идентификатор кодека : S_TEXT/UTF8
Идентификатор кодека/Информация : UTF-8 Plain Text
Заголовок : SDH
Язык : German
По умолчанию : Нет
Принудительно : Нет
Меню
00:00:00.000 : en:Chapter 1
00:02:10.111 : en:Chapter 2
00:07:53.370 : en:Chapter 3
00:11:35.759 : en:Chapter 4
00:14:27.931 : en:Chapter 5
00:21:45.035 : en:Chapter 6
00:25:51.573 : en:Chapter 7
00:26:55.011 : en:Chapter 8
00:29:35.505 : en:Chapter 9
00:33:02.503 : en:Chapter 10
00:38:20.195 : en:Chapter 11
00:40:47.259 : en:Chapter 12
00:42:57.764 : en:Chapter 13
00:48:08.283 : en:Chapter 14
00:50:07.444 : en:Chapter 15
00:53:09.959 : en:Chapter 16
00:55:46.407 : en:Chapter 17
00:57:58.873 : en:Chapter 18
01:00:21.223 : en:Chapter 19
01:05:50.386 : en:Chapter 20
01:08:08.857 : en:Chapter 21
01:11:54.666 : en:Chapter 22
01:14:50.300 : en:Chapter 23
01:22:45.608 : en:Chapter 24
01:27:47.868 : en:Chapter 25
01:30:34.452 : en:Chapter 26
01:32:27.273 : en:Chapter 27
01:36:52.871 : en:Chapter 28
01:38:29.092 : en:Chapter 29
01:40:10.360 : en:Chapter 30
01:46:48.883 : en:Chapter 31
01:52:23.259 : en:Chapter 32


Релиз от:



   Похожие торренты   Торрент   Размер 
В этой теме нет новых непрочитанных сообщений. Одиночка / Wild in the Country (1961) DVDRip-AVC | P

16 | 17

2.06 ГБ

В этой теме нет новых непрочитанных сообщений. Что-то дикое / Something Wild (1961) BDRip 720p | A

7 | 0

9.89 ГБ

В этой теме нет новых непрочитанных сообщений. Одиночка / En solitaire (2013) BDRip 720p | P

236 | 24

8.05 ГБ

В этой теме нет новых непрочитанных сообщений. Одиночка / En solitaire (2013) BDRip 720p | P

78 | 11

8.05 ГБ

В этой теме нет новых непрочитанных сообщений. Одиночка / Kamui gaiden (2009) BDRip 720p | Р

19 | 2

6.87 ГБ

В этой теме нет новых непрочитанных сообщений. Одиночка / Le Solitaire (1987) BDRip 720p от ivandubskoj | D, P, 2 x P2

205 | 9

4.36 ГБ

В этой теме нет новых непрочитанных сообщений. Герой-одиночка / Last Man Standing (1996) BDRip 720p | P

148 | 11

2.77 ГБ




Вы не можете начинать темы
Вы не можете отвечать на сообщения
Вы не можете редактировать свои сообщения
Вы не можете удалять свои сообщения
Вы не можете добавлять вложения

Перейти:  
 Вход
ppkBB3cker v.2 © 2008-2014 @ PPK
[ Time : 0.042s | 17 Queries | GZIP : Off ]

cron