img image001 image001 image001 image001 image001 image001 image001 image001 image001 image001 image001 image001 image001 image001 image001 image001

Planets Sun Sun Sun
Статистика раздачи
Автор: Снежана | Размер: 6.46 ГБ | Добавлен: 14 авг 2018
Раздают: 78    Качают: 0
Скачать торрент
Скачать торрент
Описание торрента

СообщениеДобавлено: 14 авг 2018 

Любовь - болезнь / The Big Sick

Страна: США
Студия: Apatow Productions, FilmNation Entertainment
Жанр: Комедия, мелодрама, драма
Год выпуска: 2017
Продолжительность: 01:33:27
Перевод: Профессиональный (многоголосый, закадровый) | [Jaskier] без рекламы
Режиссер: Майкл Шоуолтер
В ролях: Кумэйл Нанджиани, Зои Казан, Холли Хантер, Рэй Романо, Анупам Кхер, Зенобия Шрофф, Адиль Ахтар, Бо Бёрнэм, Эйди Брайант, Курт Браунолер
Описание: Кумал — молодой парень, который родился и вырос в семье пакистанцев. Несмотря на то, что они уже долгое время проживают в Америке, семейство продолжает чтить свои традиции, среди которых оказывается и брак по расчету. Родители находят для Кумала несколько вариантов подходящей жены, но ни одна из девушек не заинтересовывает парня. Совсем другое дело простая девушка Эмили, с которой он познакомился во время своего выступления в одном из клубов города. Между молодыми людьми вспыхивает взаимное чувство, но паре предстоит столкнуться не только с культурными различиями, но и с более серьезными проблемами...

Качество: BDRip 720p
Формат: MKV
Видео: 1280x692 | X264/MPEG4-AVC | ~6500 kbps | 23.976 fps
Аудио 1: AC3 | 48 KHz | 5.1 (Front: L С R Side: L R) + LFE | ~640 kbps [RUS]
Аудио 2: AC3 | 48 KHz | 5.1 (Front: L С R Side: L R) + LFE | ~640 kbps [ENG]

Формат : Matroska
Версия формата : Version 2
Размер файла : 6,46 Гбайт
Продолжительность : 2 ч. 0 м.
Общий поток : 7687 Кбит/сек
Дата кодирования : UTC 2018-08-13 13:05:51
Программа кодирования : mkvmerge v7.8.0 ('River Man') 32bit built on Apr 3 2015 12:11:22
Библиотека кодирования : libebml v1.3.1 + libmatroska v1.4.2
Видео
Идентификатор : 1
Формат : AVC
Формат/Информация : Advanced Video Codec
Профиль формата : High@L4.1
Параметр CABAC формата : Да
Параметр ReFrames формата : 9 кадров
Идентификатор кодека : V_MPEG4/ISO/AVC
Продолжительность : 2 ч. 0 м.
Битрейт : 6254 Кбит/сек
Ширина : 1280 пикселей
Высота : 692 пикселя
Соотношение сторон : 1,85:1
Режим частоты кадров : Постоянный
Частота кадров : 23,976 (24000/1001) кадра/сек
Цветовое пространство : YUV
Субдискретизация насыщенности : 4:2:0
Битовая глубина : 8 бит
Тип развёртки : Прогрессивная
Бит/(Пиксели*Кадры) : 0.294
Размер потока : 5,26 Гбайт (81%)
Библиотека кодирования : x264 core 148 r2665kMod a01e339
Настройки программы : cabac=1 / ref=9 / deblock=1:-3:-3 / analyse=0x3:0x133 / me=umh / subme=11 / psy=1 / fade_compensate=0.00 / psy_rd=1.00:0.00 / mixed_ref=1 / me_range=48 / chroma_me=1 / trellis=2 / 8x8dct=1 / cqm=0 / deadzone=21,11 / fast_pskip=0 / chroma_qp_offset=-2 / threads=22 / lookahead_threads=5 / sliced_threads=0 / nr=0 / decimate=0 / interlaced=0 / bluray_compat=0 / constrained_intra=0 / fgo=0 / bframes=11 / b_pyramid=2 / b_adapt=2 / b_bias=0 / direct=3 / weightb=1 / open_gop=0 / weightp=2 / keyint=240 / keyint_min=24 / scenecut=40 / intra_refresh=0 / rc_lookahead=40 / rc=crf / mbtree=0 / crf=17.9000 / qcomp=0.70 / qpmin=0 / qpmax=69 / qpstep=4 / vbv_maxrate=40000 / vbv_bufsize=30000 / crf_max=0.0 / nal_hrd=none / filler=0 / ip_ratio=1.20 / pb_ratio=1.20 / aq=3:0.85
Язык : English
Default : Да
Forced : Нет
Аудио #1
Идентификатор : 2
Формат : AC-3
Формат/Информация : Audio Coding 3
Расширение режима : CM (complete main)
Параметр Endianness формата : Big
Идентификатор кодека : A_AC3
Продолжительность : 2 ч. 0 м.
Вид битрейта : Постоянный
Битрейт : 640 Кбит/сек
Каналы : 6 каналов
Расположение каналов : Front: L C R, Side: L R, LFE
Частота : 48,0 КГц
Частота кадров : 31,250 кадров/сек (1536 spf)
Метод сжатия : С потерями
Размер потока : 551 Мбайт (8%)
Заголовок : Jaskier
Язык : Russian
Default : Да
Forced : Нет
Аудио #2
Идентификатор : 3
Формат : AC-3
Формат/Информация : Audio Coding 3
Расширение режима : CM (complete main)
Параметр Endianness формата : Big
Идентификатор кодека : A_AC3
Продолжительность : 2 ч. 0 м.
Вид битрейта : Постоянный
Битрейт : 640 Кбит/сек
Каналы : 6 каналов
Расположение каналов : Front: L C R, Side: L R, LFE
Частота : 48,0 КГц
Частота кадров : 31,250 кадров/сек (1536 spf)
Метод сжатия : С потерями
Размер потока : 551 Мбайт (8%)
Язык : English
Default : Нет
Forced : Нет



   Похожие торренты   Торрент   Размер 
В этой теме нет новых непрочитанных сообщений. Любовь - болезнь / The Big Sick (2017) BDRip 1080p | Jaskier

18 | 0

11.22 ГБ

В этой теме нет новых непрочитанных сообщений. Любовь - болезнь / The Big Sick (2017) HDRip | Jaskier

50 | 5

1.45 ГБ

В этой теме нет новых непрочитанных сообщений. Любовь – болезнь / The Big Sick (2017) BDRip 720p | L

117 | 7

3.62 ГБ

В этой теме нет новых непрочитанных сообщений. Любовь – болезнь / The Big Sick (2017) HDRip | L

120 | 2

1.45 ГБ

В этой теме нет новых непрочитанных сообщений. Любовь - болезнь / The Big Sick (2017) HDRip от Generalfilm | КПК | P

10 | 2

457.88 МБ

В этой теме нет новых непрочитанных сообщений. По болезни / Sick Note [S01] (2017) HDTVRip 720p | Ozz

44 | 11

4.18 ГБ

В этой теме нет новых непрочитанных сообщений. По болезни / Sick Note [01x01-02 из 6] (2017) HDTV 720p | NewStudio

7 | 1

1.8 ГБ




Вы не можете начинать темы
Вы не можете отвечать на сообщения
Вы не можете редактировать свои сообщения
Вы не можете удалять свои сообщения
Вы не можете добавлять вложения

Перейти:  
 Вход
ppkBB3cker v.2 © 2008-2014 @ PPK
[ Time : 0.045s | 17 Queries | GZIP : Off ]

cron