img image001 image001 image001 image001 image001 image001 image001 image001 image001 image001 image001 image001 image001 image001 image001 image001

Planets Sun Sun Sun
Статистика раздачи
Автор: Снежана | Размер: 2.01 ГБ | Добавлен: 14 авг 2018
Раздают: 67    Качают: 0
Скачать торрент
Скачать торрент
Описание торрента

СообщениеДобавлено: 14 авг 2018 

Информация о фильме
Название: Красный холм
Оригинальное название: Red Hill
Год выхода: 2010
Жанр: Триллер, драма, криминал
Режиссер: Патрик Хьюз
В ролях: Райан Квантен, Стив Бисли, Томми Льюис, Клер Вандер Бум, Кристофер Дэвис, Кевин Харингтон, Ричард Сазерленд, Кен Рэдли, Джон Брамптон, Клифф Эллен
О фильме:
Молодой констебль конной полиции Шейн Купер, переезжает в маленький провинциальный городок с беременной женой, в поисках спокойной жизни. Но первый рабочий день Шейна быстро превращается из плохого в худший, когда из тюрьмы сбегает Джимми Конвей, признанный виновным в совершении ряда жестоких убийств. Убийца полон решимости отомстить всем кто засадил его в тюрьму, включая большую часть офиса шерифа. Местная полиция в панике, город становится местом ужасающей кровавой резни. Шейн вынужден взять закон в свои руки, если хочет выжить и спасти жену. Действие триллера разворачивается в течение одного дня.

Страна: Австралия
Студия: Hughes House Film, Screen Australia, Wildheart Films
Продолжительность: 01:37:09
Перевод: Профессиональный двухголосый (Студия BD) + Оригинал
Файл
Кодек: x.264
Качество: HDRip-AVC | исх. BDRip 1080p
Видео: h264 / 2390 kbps / 1024x426 / 23.976 fps
Аудио 1: 48 kHz / 192 kbps (Студия BD)
Аудио 2: 48 kHz / 384 kbps (Оригинал)
Субтитры: Русские
Релиз от: Alukard14
avs [info]: 1024x426p 1:1 @ 2500000/104271 fps (cfr)
x264 [info]: using SAR=1/1
x264 [info]: using cpu capabilities: MMX2 SSE2Fast SSSE3 SSE4.2 AVX XOP FMA4 FMA3 LZCNT BMI1
x264 [info]: profile High, level 4.1
x264 [info]: frame I:1503 Avg QP:13.71 size: 78136
x264 [info]: frame P:15883 Avg QP:16.46 size: 33012
x264 [info]: frame B:122365 Avg QP:18.93 size: 8972
x264 [info]: consecutive B-frames: 2.3% 0.2% 0.3% 0.4% 0.5% 0.6% 0.6% 0.7% 1.7% 92.6%
x264 [info]: mb I I16..4: 20.3% 51.2% 28.5%
x264 [info]: mb P I16..4: 2.7% 14.7% 3.1% P16..4: 25.0% 31.9% 16.9% 0.0% 0.0% skip: 5.5%
x264 [info]: mb B I16..4: 0.6% 1.9% 0.2% B16..8: 28.6% 19.6% 3.9% direct: 8.6% skip:36.6% L0:43.8% L1:39.4% BI:16.8%
x264 [info]: 8x8 transform intra:67.1% inter:45.0%
x264 [info]: direct mvs spatial:98.8% temporal:1.2%
x264 [info]: coded y,uvDC,uvAC intra: 77.9% 80.6% 62.9% inter: 27.2% 23.4% 7.0%
x264 [info]: i16 v,h,dc,p: 59% 8% 15% 18%
x264 [info]: i8 v,h,dc,ddl,ddr,vr,hd,vl,hu: 10% 9% 18% 8% 11% 10% 11% 10% 13%
x264 [info]: i4 v,h,dc,ddl,ddr,vr,hd,vl,hu: 14% 10% 15% 8% 11% 11% 10% 10% 12%
x264 [info]: i8c dc,h,v,p: 46% 26% 16% 12%
x264 [info]: Weighted P-Frames: Y:6.8% UV:2.9%
x264 [info]: ref P L0: 38.2% 7.6% 21.4% 7.7% 7.3% 4.6% 4.7% 2.3% 2.4% 1.7% 1.9% 0.2% 0.0%
x264 [info]: ref B L0: 73.4% 12.0% 5.2% 2.9% 2.0% 1.6% 1.4% 0.9% 0.5% 0.2%
x264 [info]: ref B L1: 92.6% 7.4%
x264 [info]: kb/s:2387.60

Общее
Уникальный идентификатор : 200323442605440865055433123640016559050 (0x96B4E44454DBDB628FDA5EC3941EDBCA)
Полное имя : E:TestRipRed.Hill.by.Alukard14.mkv
Формат : Matroska
Версия формата : Version 2
Размер файла : 2,01 Гбайт
Продолжительность : 1 ч. 37 м.
Общий поток : 2965 Кбит/сек
Дата кодирования : UTC 2018-08-08 14:42:09
Программа кодирования : mkvmerge v4.1.1 ('Bouncin' Back') сборка от Jul 3 2010 22:54:08
Библиотека кодирования : libebml v1.0.0 + libmatroska v1.0.0
Видео
Идентификатор : 1
Формат : AVC
Формат/Информация : Advanced Video Codec
Профиль формата : High@L4.1
Настройки формата : CABAC / 11 Ref Frames
Параметр CABAC формата : Да
Параметр RefFrames формата : 11 кадров
Идентификатор кодека : V_MPEG4/ISO/AVC
Продолжительность : 1 ч. 37 м.
Битрейт : 2390 Кбит/сек
Ширина : 1024 пикселя
Высота : 426 пикселей
Соотношение сторон : 2,40:1
Режим частоты кадров : Постоянный
Частота кадров : 23,976 кадра/сек
Цветовое пространство : YUV
Субдискретизация насыщенности : 4:2:0
Битовая глубина : 8 бит
Тип развёртки : Прогрессивная
Бит/(Пиксели*Кадры) : 0.229
Размер потока : 1,58 Гбайт (79%)
Библиотека кодирования : x264 core 148 r2638 7599210
Настройки программы : cabac=1 / ref=11 / deblock=1:-3:-3 / analyse=0x3:0x113 / me=umh / subme=11 / psy=1 / psy_rd=1.00:0.20 / mixed_ref=1 / me_range=48 / chroma_me=1 / trellis=2 / 8x8dct=1 / cqm=0 / deadzone=21,11 / fast_pskip=0 / chroma_qp_offset=-3 / threads=9 / lookahead_threads=1 / sliced_threads=0 / nr=0 / decimate=0 / interlaced=0 / bluray_compat=0 / constrained_intra=0 / bframes=9 / b_pyramid=2 / b_adapt=0 / b_bias=0 / direct=3 / weightb=1 / open_gop=0 / weightp=2 / keyint=240 / keyint_min=24 / scenecut=40 / intra_refresh=0 / rc_lookahead=40 / rc=2pass / mbtree=1 / bitrate=2390 / ratetol=1.0 / qcomp=0.60 / qpmin=0 / qpmax=69 / qpstep=2 / cplxblur=20.0 / qblur=0.5 / vbv_maxrate=14000 / vbv_bufsize=14000 / nal_hrd=none / filler=0 / ip_ratio=1.40 / aq=1:1.00
Default : Да
Forced : Нет
Аудио #1
Идентификатор : 2
Формат : AC-3
Формат/Информация : Audio Coding 3
Режим смешивания : Header stripping
Идентификатор кодека : A_AC3
Продолжительность : 1 ч. 37 м.
Вид битрейта : Постоянный
Битрейт : 192 Кбит/сек
Каналы : 2 канала
Расположение каналов : Front: L R
Частота : 48,0 КГц
Частота кадров : 31,250 кадров/сек (1536 SPF)
Битовая глубина : 16 бит
Метод сжатия : С потерями
Размер потока : 133 Мбайт (6%)
Default : Да
Forced : Нет
Аудио #2
Идентификатор : 3
Формат : AC-3
Формат/Информация : Audio Coding 3
Режим смешивания : Header stripping
Идентификатор кодека : A_AC3
Продолжительность : 1 ч. 37 м.
Вид битрейта : Постоянный
Битрейт : 384 Кбит/сек
Каналы : 6 каналов
Расположение каналов : Front: L C R, Side: L R, LFE
Частота : 48,0 КГц
Частота кадров : 31,250 кадров/сек (1536 SPF)
Битовая глубина : 16 бит
Метод сжатия : С потерями
Размер потока : 267 Мбайт (13%)
Default : Нет
Forced : Нет
Текст
Идентификатор : 4
Формат : UTF-8
Идентификатор кодека : S_TEXT/UTF8
Идентификатор кодека/Информация : UTF-8 Plain Text
Язык : Russian
Default : Нет
Forced : Нет




   Похожие торренты   Торрент   Размер 
В этой теме нет новых непрочитанных сообщений. Красный холм / Red Hill (2010) HDRip | P2, L1

220 | 19

1.46 ГБ

В этой теме нет новых непрочитанных сообщений. Холм одного дерева / One Tree Hill [S07] (2009-2010) WEB-DL 720p | НТВ

7 | 1

29.72 ГБ

В этой теме нет новых непрочитанных сообщений. Высота Гамбургер / Холм Мясорубка / Hamburger Hill (1987) HDRip | НТВ+

271 | 11

751.43 МБ

В этой теме нет новых непрочитанных сообщений. Холм одного дерева / One Tree Hill [S05] (2008) WEB-DL 720p | НТВ

11 | 5

24.52 ГБ

В этой теме нет новых непрочитанных сообщений. Холм одного дерева / One Tree Hill [S04] (2006-2007) WEB-DL 720p | НТВ

3 | 5

27.84 ГБ

В этой теме нет новых непрочитанных сообщений. Холм одного дерева / One Tree Hill [S03] (2005-2006) WEB-DL 720p | НТВ

5 | 14

29.41 ГБ

В этой теме нет новых непрочитанных сообщений. Холм одного дерева / One Tree Hill [S02] (2004-2005) WEB-DL 720p | НТВ

4 | 6

30.87 ГБ




Вы не можете начинать темы
Вы не можете отвечать на сообщения
Вы не можете редактировать свои сообщения
Вы не можете удалять свои сообщения
Вы не можете добавлять вложения

Перейти:  
 Вход
ppkBB3cker v.2 © 2008-2014 @ PPK
[ Time : 0.032s | 15 Queries | GZIP : Off ]

cron