img image001 image001 image001 image001 image001 image001 image001 image001 image001 image001 image001 image001 image001 image001 image001 image001

Planets Sun Sun Sun
Статистика раздачи
Автор: Снежана | Размер: 11.22 ГБ | Добавлен: 14 авг 2018
Раздают: 18    Качают: 0
Скачать торрент
Скачать торрент
Описание торрента

СообщениеДобавлено: 14 авг 2018 

«An awkward true story»
Информация о фильме
Название: Любовь - болезнь
Оригинальное название: The Big Sick
Год выхода: 2017
Жанр: Драма, мелодрама, комедия
Режиссер: Майкл Шоуолтер
В ролях: Кумэйл Нанджиани, Зои Казан, Холли Хантер, Рэй Романо, Анупам Кхер, Зенобия Шрофф, Адиль Ахтар, Бо Бёрнэм, Эйди Брайант, Курт Браунолер
О фильме:
По мере развития отношений влюбленной паре приходится столкнуться со своими культурными различиями.

Страна: США
Студия: Apatow Productions, FilmNation Entertainment, Story Ink
Продолжительность: 02:00:24
Перевод:
Профессиональный (многоголосый, закадровый) | Jaskier
Файл
Качество: BDRip 1080p
Формат: MKV
Кодек: MPEG-4 AVC
Видео: 1920x1038 (1.85:1), 23,976 fps, MPEG-4 AVC ~ 11,2 Мbps avg, 0.234 bit/pixel
Аудио: AC3, 48 kHz, 6 ch, ~640.00 kbps avg | русский | Профессиональный (многоголосый, закадровый) | Jaskier
Аудио: DTS, 48 kHz, 6 ch, ~1509.00 kbps avg | английский | Оригинал
Субтитры: Английские
Семпл
Общее
Уникальный идентификатор : 265534869591568698323691993112740724029 (0xC7C427D97FFE1E1100BAACAF1B597D3D)
Полное имя : The.Big.Sick.2017.1080p.BluRay.Rus.Eng.mkv
Формат : Matroska
Версия формата : Version 4 / Version 2
Размер файла : 11,2 Гбайт
Продолжительность : 2 ч. 0 м.
Общий поток : 13,3 Мбит/сек
Название фильма : Th Big Sick (2017)
Дата кодирования : UTC 2018-08-13 17:43:32
Программа кодирования : mkvmerge v20.0.0 ('I Am The Sun') 64-bit
Библиотека кодирования : libebml v1.3.5 + libmatroska v1.4.8
Видео
Идентификатор : 1
Формат : AVC
Формат/Информация : Advanced Video Codec
Профиль формата : High@L4.1
Настройки формата : CABAC / 4 Ref Frames
Параметр CABAC формата : Да
Параметр RefFrames формата : 4 кадра
Идентификатор кодека : V_MPEG4/ISO/AVC
Продолжительность : 2 ч. 0 м.
Битрейт : 11,2 Мбит/сек
Ширина : 1920 пикселей
Высота : 1038 пикселей
Соотношение сторон : 1,85:1
Режим частоты кадров : Постоянный
Частота кадров : 23,976 (24000/1001) кадра/сек
Цветовое пространство : YUV
Субдискретизация насыщенности : 4:2:0
Битовая глубина : 8 бит
Тип развёртки : Прогрессивная
Бит/(Пиксели*Кадры) : 0.234
Размер потока : 9,41 Гбайт (84%)
Библиотека кодирования : x264 core 152 r2851 ba24899
Настройки программы : cabac=1 / ref=4 / deblock=1:-3:-3 / analyse=0x3:0x113 / me=umh / subme=10 / psy=1 / psy_rd=1.03:0.00 / mixed_ref=1 / me_range=32 / chroma_me=1 / trellis=2 / 8x8dct=1 / cqm=1 / deadzone=21,11 / fast_pskip=0 / chroma_qp_offset=-1 / threads=12 / lookahead_threads=2 / sliced_threads=0 / nr=0 / decimate=1 / interlaced=0 / bluray_compat=0 / constrained_intra=0 / bframes=8 / b_pyramid=2 / b_adapt=2 / b_bias=0 / direct=3 / weightb=1 / open_gop=0 / weightp=2 / keyint=230 / keyint_min=23 / scenecut=40 / intra_refresh=0 / rc_lookahead=40 / rc=crf / mbtree=0 / crf=18.2 / qcomp=0.61 / qpmin=5 / qpmax=69 / qpstep=4 / vbv_maxrate=62500 / vbv_bufsize=78125 / crf_max=0.0 / nal_hrd=none / filler=0 / ip_ratio=1.30 / pb_ratio=1.20 / aq=1:0.75
Язык : English
Default : Да
Forced : Нет
Аудио #1
Идентификатор : 2
Формат : AC-3
Формат/Информация : Audio Coding 3
Идентификатор кодека : A_AC3
Продолжительность : 2 ч. 0 м.
Вид битрейта : Постоянный
Битрейт : 640 Кбит/сек
Каналы : 6 каналов
Расположение каналов : Front: L C R, Side: L R, LFE
Частота : 48,0 КГц
Частота кадров : 31,250 кадров/сек (1536 SPF)
Битовая глубина : 16 бит
Метод сжатия : С потерями
Размер потока : 551 Мбайт (5%)
Заголовок : Jaskier
Язык : Russian
Default : Да
Forced : Нет
Аудио #2
Идентификатор : 3
Формат : DTS
Формат/Информация : Digital Theater Systems
Идентификатор кодека : A_DTS
Продолжительность : 2 ч. 0 м.
Вид битрейта : Постоянный
Битрейт : 1509 Кбит/сек
Каналы : 6 каналов
Расположение каналов : Front: L C R, Side: L R, LFE
Частота : 48,0 КГц
Частота кадров : 93,750 кадра/сек (512 SPF)
Битовая глубина : 24 бит
Метод сжатия : С потерями
Размер потока : 1,27 Гбайт (11%)
Язык : English
Default : Нет
Forced : Нет
Текст #1
Идентификатор : 4
Формат : UTF-8
Идентификатор кодека : S_TEXT/UTF8
Идентификатор кодека/Информация : UTF-8 Plain Text
Продолжительность : 1 ч. 56 м.
Битрейт : 94 бит/сек
ElementCount : 2547
Размер потока : 80,6 Кбайт (0%)
Язык : English
Default : Да
Forced : Нет
Текст #2
Идентификатор : 5
Формат : UTF-8
Идентификатор кодека : S_TEXT/UTF8
Идентификатор кодека/Информация : UTF-8 Plain Text
Продолжительность : 1 ч. 56 м.
Битрейт : 101 бит/сек
ElementCount : 2707
Размер потока : 86,9 Кбайт (0%)
Заголовок : SDH
Язык : English
Default : Нет
Forced : Нет
Текст #3
Идентификатор : 6
Формат : UTF-8
Идентификатор кодека : S_TEXT/UTF8
Идентификатор кодека/Информация : UTF-8 Plain Text
Продолжительность : 1 ч. 57 м.
Битрейт : 123 бит/сек
ElementCount : 2440
Размер потока : 106 Кбайт (0%)
Язык : Arabic
Default : Нет
Forced : Нет
Меню
00:00:00.000 : en:Chapter 1
00:07:16.311 : en:Chapter 2
00:13:40.695 : en:Chapter 3
00:21:59.818 : en:Chapter 4
00:29:05.577 : en:Chapter 5
00:37:19.404 : en:Chapter 6
00:45:03.159 : en:Chapter 7
00:53:08.769 : en:Chapter 8
01:00:37.425 : en:Chapter 9
01:08:40.575 : en:Chapter 10
01:14:45.940 : en:Chapter 11
01:22:43.667 : en:Chapter 12
01:31:03.041 : en:Chapter 13
01:38:32.323 : en:Chapter 14
01:46:52.156 : en:Chapter 15
01:57:49.396 : en:Chapter 16



   Похожие торренты   Торрент   Размер 
В этой теме нет новых непрочитанных сообщений. Любовь - болезнь / The Big Sick (2017) BDRip 720p | Jaskier

78 | 0

6.46 ГБ

В этой теме нет новых непрочитанных сообщений. Любовь - болезнь / The Big Sick (2017) HDRip | Jaskier

253 | 6

1.45 ГБ

В этой теме нет новых непрочитанных сообщений. Любовь – болезнь / The Big Sick (2017) BDRip 720p | L

117 | 7

3.62 ГБ

В этой теме нет новых непрочитанных сообщений. Любовь – болезнь / The Big Sick (2017) HDRip | L

120 | 2

1.45 ГБ

В этой теме нет новых непрочитанных сообщений. Любовь - болезнь / The Big Sick (2017) HDRip от Generalfilm | КПК | P

10 | 2

457.88 МБ

В этой теме нет новых непрочитанных сообщений. По болезни / Sick Note [S01] (2017) HDTV 1080p | NewStudio

10 | 11

8.67 ГБ

В этой теме нет новых непрочитанных сообщений. По болезни / Sick Note [01x01-03 из 6] (2017) HDTV 1080p | NewStudio

11 | 0

5.04 ГБ




Вы не можете начинать темы
Вы не можете отвечать на сообщения
Вы не можете редактировать свои сообщения
Вы не можете удалять свои сообщения
Вы не можете добавлять вложения

Перейти:  
 Вход
ppkBB3cker v.2 © 2008-2014 @ PPK
[ Time : 0.027s | 16 Queries | GZIP : Off ]

cron