img image001 image001 image001 image001 image001 image001 image001 image001 image001 image001 image001 image001 image001 image001 image001 image001

Planets Sun Sun Sun
Статистика раздачи
Автор: Снежана | Размер: 7.08 ГБ | Добавлен: 14 авг 2018
Раздают: 2    Качают: 0
Скачать торрент
Скачать торрент
Описание торрента

СообщениеДобавлено: 14 авг 2018 

Информация о фильме
Год выхода: 2015
Наименование: Хэвизавры
Оригинальное наименование: Hevisaurus-elokuva
Жанр: фэнтези, семейный, музыка
Страна: Финляндия
Режиссер постановщик: Пекка Карьялайнен
В главных ролях: Салли Сиивонен, Кари Хиеталахти, Танели Мякеля , Эйя Вилпас,, Хейкки Хела, Каиса Маттила, Тони Вальстрём, Сэнна Стеллан, Матти Ситонен, Киммо Таавила, Аллан Туппурайнен
О фильме: Одна ведьма жила себе одинешенько под землей и старалась больше не вмешиваться в людские дела. Но вот по прошествии нескольких веков в ее уютной пещере появляются странные существа, весьма беспокойные. Тогда ведьма решает выяснить, не привлекает ли людей постоянный шум из ее жилища. После выхода на поверхность ей открывается страшная правда - вблизи входа в ее укрытие не просто живут люди, а стоит современная школа. Ей и всей новоявленной компании приходится начинать поиски нового жилья. Но выход их на поверхность не остается незамеченным людьми.

Файл
Качество: HDRip 1080p
Видео данные: MKV, 1920x800 (2.40:1), 23.976 fps, 11000 Кбит/с
Аудио данные: AC3, 2 ch, 640 Кбит/с
Перевод: Любительский многоголосый (GreenРай Studio)
Продолжительность: 01:25:13
General
Unique ID : 194682228300264191546673937311400756365 (0x92766EED8EE8E9ED8C4134090394848D)
Complete name : E:ГРИНРАЙHevisaurus-elokuva.2015.P.BDRip.1080p.mkv
Format : Matroska
Format version : Version 4 / Version 2
File size : 7.08 GiB
Duration : 1 h 25 min
Overall bit rate : 11.9 Mb/s
Encoded date : UTC 2018-08-12 12:16:37
Writing application : mkvmerge v6.5.0 ('Isn't she lovely') built on Oct 20 2013 12:50:05
Writing library : libebml v1.3.0 + libmatroska v1.4.1
Video
ID : 1
Format : AVC
Format/Info : Advanced Video Codec
Format profile : High@L3.1
Format settings : CABAC / 4 Ref Frames
Format settings, CABAC : Yes
Format settings, RefFrames : 4 frames
Codec ID : V_MPEG4/ISO/AVC
Duration : 1 h 25 min
Bit rate : 11.0 Mb/s
Width : 1 920 pixels
Height : 800 pixels
Display aspect ratio : 2.40:1
Frame rate mode : Constant
Frame rate : 23.976 (23976/1000) FPS
Color space : YUV
Chroma subsampling : 4:2:0
Bit depth : 8 bits
Scan type : Progressive
Bits/(Pixel*Frame) : 0.299
Stream size : 6.56 GiB (93%)
Writing library : x264 core 146 r2538 121396c
Encoding settings : cabac=1 / ref=1 / deblock=1:0:0 / analyse=0x3:0x113 / me=hex / subme=2 / psy=1 / psy_rd=1.00:0.00 / mixed_ref=0 / me_range=16 / chroma_me=1 / trellis=0 / 8x8dct=1 / cqm=0 / deadzone=21,11 / fast_pskip=1 / chroma_qp_offset=0 / threads=9 / lookahead_threads=3 / sliced_threads=0 / nr=0 / decimate=1 / interlaced=0 / bluray_compat=0 / constrained_intra=0 / bframes=3 / b_pyramid=2 / b_adapt=1 / b_bias=0 / direct=1 / weightb=1 / open_gop=0 / weightp=1 / keyint=250 / keyint_min=23 / scenecut=40 / intra_refresh=0 / rc_lookahead=10 / rc=crf / mbtree=1 / crf=14.5 / qcomp=0.60 / qpmin=0 / qpmax=69 / qpstep=4 / ip_ratio=1.40 / aq=1:1.00
Default : Yes
Forced : No
Audio
ID : 2
Format : AC-3
Format/Info : Audio Coding 3
Codec ID : A_AC3
Duration : 1 h 25 min
Bit rate mode : Constant
Bit rate : 640 kb/s
Channel(s) : 2 channels
Channel positions : Front: L R
Sampling rate : 48.0 kHz
Frame rate : 31.250 FPS (1536 SPF)
Bit depth : 16 bits
Compression mode : Lossy
Stream size : 390 MiB (5%)
Service kind : Complete Main
Default : Yes
Forced : No

Внимание, имеется видео и аудио реклама от спонсора показа

Релиз от:



   Похожие торренты   Торрент   Размер 
В этой теме нет новых непрочитанных сообщений. Хэвизавры / Hevisaurus-elokuva (2015) HDRip | GreenРай Studio

15 | 0

1.37 ГБ

В этой теме нет новых непрочитанных сообщений. Хэвизавры / Hevisaurus-elokuva (2015) HDRip 720p | GreenРай Studio

0 | 3

3.79 ГБ

В этой теме нет новых непрочитанных сообщений. Потеря и любовь / Shi gu (2015) HDRip 1080p | GreenРай Studio

7 | 0

7.65 ГБ

В этой теме нет новых непрочитанных сообщений. Красная таблетка / The Red Pill (2016) HDRip 1080p | GreenРай Studio

7 | 2

8.02 ГБ

В этой теме нет новых непрочитанных сообщений. Цвет кофе с молоком / Moka (2016) HDRip 1080p | GreenРай Studio

2 | 0

8.2 ГБ

В этой теме нет новых непрочитанных сообщений. Ты спишь, Николь / Tu dors Nicole (2014) HDRip 1080p | GreenРай Studio

3 | 0

6.51 ГБ

В этой теме нет новых непрочитанных сообщений. Маленькая Англия / Mikra Anglia (2013) HDRip 1080p | GreenРай Studio

0 | 0

10.41 ГБ




Вы не можете начинать темы
Вы не можете отвечать на сообщения
Вы не можете редактировать свои сообщения
Вы не можете удалять свои сообщения
Вы не можете добавлять вложения

Перейти:  
 Вход
ppkBB3cker v.2 © 2008-2014 @ PPK
[ Time : 0.030s | 15 Queries | GZIP : Off ]

cron