img image001 image001 image001 image001 image001 image001 image001 image001 image001 image001 image001 image001 image001 image001 image001 image001

Planets Sun Sun Sun
Статистика раздачи
Автор: Снежана | Размер: 3.65 ГБ | Добавлен: 14 авг 2018
Раздают: 3    Качают: 0
Скачать торрент
Скачать торрент
Описание торрента

СообщениеДобавлено: 14 авг 2018 

Информация о фильме
Год выхода: 2017
Наименование: Где Кайра?
Оригинальное наименование: Where Is Kyra?
Страна: Великобритания, США
Жанр: драма
Режиссер постановщик: Эндрю Досунму
В главных ролях: Мишель Пфайффер, Кифер Сазерленд, Сюзанн Шеперд, Энтони Окунгбова, Бабс Олусанмокун, Стелла Шнабель, Анжела Питропинто, Сэм Робардс, Рутаня Олда
О фильме: Кроткая скрытная Кайра начинает увядать после смерти матери. Когда она все больше отдаляется от людей и замыкается в себе, женщина решает предпринять последнюю отчаянную попытку, чтобы её не выселили. Кроме того, она находит утешение в другой одинокой душе - Даге, от которого она изначально пытается скрыть свое бедственное положение, но Кайра медленно вплетает его в свой обман.

Файл
Качество: WEBRip 1080p
Видео данные: MKV, 1920x810 (2.40:1), 23.976 fps, 5080 Кбит/с
Аудио данные: AAC, 2 ch, 192 Кбит/с
Перевод: Любительский многоголосый (GreenРай Studio)
Продолжительность: 01:39:07
General
Unique ID : 249604921792796902090114417749308287333 (0xBBC828C8D9704EE612AF61E4146D2965)
Complete name : E:ГРИНРАЙWhere.Is.Kyra.2017.P.BDRip.1080p.mkv
Format : Matroska
Format version : Version 4 / Version 2
File size : 3.65 GiB
Duration : 1 h 39 min
Overall bit rate : 5 272 kb/s
Encoded date : UTC 2018-08-12 08:03:28
Writing application : mkvmerge v25.0.0 ('Prog Noir') 64-bit
Writing library : libebml v1.3.6 + libmatroska v1.4.9
Video
ID : 1
Format : AVC
Format/Info : Advanced Video Codec
Format profile : High@L4.1
Format settings : CABAC / 1 Ref Frames
Format settings, CABAC : Yes
Format settings, RefFrames : 1 frame
Format settings, GOP : M=1, N=30
Codec ID : V_MPEG4/ISO/AVC
Duration : 1 h 39 min
Bit rate : 5 080 kb/s
Width : 1 920 pixels
Height : 810 pixels
Display aspect ratio : 2.40:1
Frame rate mode : Constant
Frame rate : 23.976 (24000/1001) FPS
Color space : YUV
Chroma subsampling : 4:2:0
Bit depth : 8 bits
Scan type : Progressive
Bits/(Pixel*Frame) : 0.136
Stream size : 3.52 GiB (96%)
Language : English
Default : Yes
Forced : No
Audio
ID : 2
Format : AAC
Format/Info : Advanced Audio Codec
Format profile : LC
Codec ID : A_AAC-2
Duration : 1 h 39 min
Bit rate : 192 kb/s
Channel(s) : 2 channels
Channel positions : Front: L R
Sampling rate : 48.0 kHz
Frame rate : 46.875 FPS (1024 SPF)
Compression mode : Lossy
Stream size : 134 MiB (4%)
Language : English
Default : Yes
Forced : No

Внимание, имеется видео и аудио реклама от спонсора показа

Релиз от:



   Похожие торренты   Торрент   Размер 
В этой теме нет новых непрочитанных сообщений. Где Кайра? / Where Is Kyra? (2017) WEBRip | GreenРай Studio

10 | 3

749.44 МБ

В этой теме нет новых непрочитанных сообщений. Где Кайра? / Where Is Kyra? (2017) WEBRip 720p | GreenРай Studio

10 | 0

1.24 ГБ

В этой теме нет новых непрочитанных сообщений. Храм / Temple (2017) WEBRip 1080p | GreenРай Studio

20 | 0

2.57 ГБ

В этой теме нет новых непрочитанных сообщений. Дом призраков / Ghost House (2017) WEBRip 1080p | GreenРай Studio

39 | 12

3.21 ГБ

В этой теме нет новых непрочитанных сообщений. 24 часа Ле-Мана / Le Mans: Racing Is Everything [S01] (2017) WEBRip 1080p | GreenРай Studio

9 | 0

3.55 ГБ

В этой теме нет новых непрочитанных сообщений. Американская домохозяйка / American Housewife [S02] (2017) WEBRip 1080p | GreenРай Studio

0 | 4

29.12 ГБ

В этой теме нет новых непрочитанных сообщений. Ким Дотком: Пойманный в Сеть / Kim Dotcom: Caught in the Web (2017) WEBRip 1080p | GreenРай Studio

5 | 0

3.55 ГБ




Вы не можете начинать темы
Вы не можете отвечать на сообщения
Вы не можете редактировать свои сообщения
Вы не можете удалять свои сообщения
Вы не можете добавлять вложения

Перейти:  
 Вход
ppkBB3cker v.2 © 2008-2014 @ PPK
[ Time : 0.037s | 18 Queries | GZIP : Off ]

cron