img image001 image001 image001 image001 image001 image001 image001 image001 image001 image001 image001 image001 image001 image001 image001 image001

Planets Sun Sun Sun
Статистика раздачи
Автор: Снежана | Размер: 745.75 МБ | Добавлен: 14 авг 2018
Раздают: 67    Качают: 0
Скачать торрент
Скачать торрент
Описание торрента

СообщениеДобавлено: 14 авг 2018 

Информация о фильме
Название: Ниндзя из Беверли Хиллз
Оригинальное название: Beverly Hills Ninja
Год выхода: 1997
Жанр: Боевик, комедия
Режиссер: Деннис Дуган
В ролях: Крис Фарли, Николлетт Шеридан, Натаниель Паркер, Сун-Тек Ох, Крис Рок, Робин Шу, Кит Кук Хирабаяси, Франсуа Чау, Дэйл Исимото, Да Минг Чен, Берт Булосб Кертис Бланк, Том Бэйли, Джейсон Дж. Тобин, Ричард Кляйн, Анна Матиас, Натан Юнг, Джон Фарли, Джерри Дель Сол, Синтия Эллисон, Франческа Каппуччи, Хидео Кимура, Джеймс Лэйн
О фильме :
Ниндзя - таинственный, пугающий и очень хитрый воин тьмы, который ничего не боится и не поддается контролю. Таким хотел видеть своего приемного сына наставник ниндзя, случайно подобрав младенца в лесу. И хотя из него и вырос толстый болван, он все равно должен стать воином и выполнить миссию ниндзя - вызволить из беды голливудскую красотку. Но здесь, в Беверли Хиллз, ему приходится столкнуться с настоящими убийцами, которые знают тайны кунг-фу получше его, и сразиться с ними, как бы это смешно ни выглядело при его умении, а главное, весе. А что их этого вышло - Вы узнаете, посмотрев до конца фильм Ниндзя из Беверли Хиллз - приключения толстого неумехи, вообразившего себя Великим Белым Ниндзя из древней легенды.

Страна: США
Студия: Beverly Hills Ninja Productions, Motion Picture Corporation of America
Продолжительность: 01:28:38
Перевод: Профессиональный (многоголосый, закадровый), авторский
Файл
Формат: MKV
Качество: WEB-DLRip-AVC
Видео: MPEG-4 AVC, 768x432, ~ 1022 Кбит/с
Аудио 1: AAC-HE, 2 ch, ~ 76 Кбит/с | MVO, «РТР»
Аудио 2: AAC-HE, 2 ch, ~ 76 Кбит/с | AVO, «Юрий Живов»
Субтитры: Русские, английские
Общее
Уникальный идентификатор : 212364986650452728466295838163202578909 (0x9FC40239B3810865A91EB6DD93B999DD)
Полное имя : D:MOVIESBeverly Hills Ninja.1997.WEB-DLRip-AVC.ExKinoRay.mkv
Формат : Matroska
Версия формата : Version 4 / Version 2
Размер файла : 746 Мбайт
Продолжительность : 1 ч. 28 м.
Общий поток : 1173 Кбит/сек
Дата кодирования : UTC 2018-08-14 04:35:29
Программа кодирования : mkvmerge v15.0.0 ('Duel with the Devil') 64-bit
Библиотека кодирования : libebml v1.3.5 + libmatroska v1.4.5
Видео
Идентификатор : 1
Формат : AVC
Формат/Информация : Advanced Video Codec
Профиль формата : High@L4.1
Параметр CABAC формата : Да
Параметр RefFrames формата : 12 кадров
Идентификатор кодека : V_MPEG4/ISO/AVC
Продолжительность : 1 ч. 28 м.
Битрейт : 1022 Кбит/сек
Ширина : 768 пикселей
Высота : 432 пикселя
Соотношение сторон : 16:9
Режим частоты кадров : Постоянный
Частота кадров : 23,976 (24000/1001) кадра/сек
Цветовое пространство : YUV
Субдискретизация насыщенности : 4:2:0
Битовая глубина : 8 бит
Тип развёртки : Прогрессивная
Бит/(Пиксели*Кадры) : 0.128
Размер потока : 648 Мбайт (87%)
Библиотека кодирования : x264 core 152 r2851kMod ba24899
Настройки программы : cabac=1 / ref=12 / deblock=1:-3:-3 / analyse=0x3:0x133 / me=umh / subme=10 / psy=1 / fade_compensate=0.00 / psy_rd=1.00:0.15 / mixed_ref=1 / me_range=32 / chroma_me=1 / trellis=2 / 8x8dct=1 / cqm=0 / deadzone=21,11 / fast_pskip=0 / chroma_qp_offset=-3 / threads=6 / lookahead_threads=1 / sliced_threads=0 / nr=0 / decimate=0 / interlaced=0 / bluray_compat=0 / constrained_intra=0 / bframes=11 / b_pyramid=2 / b_adapt=2 / b_bias=0 / direct=3 / weightb=1 / open_gop=0 / weightp=2 / keyint=240 / keyint_min=23 / scenecut=40 / intra_refresh=0 / rc_lookahead=40 / rc=2pass / mbtree=1 / bitrate=1022 / ratetol=1.0 / qcomp=0.60 / qpmin=0 / qpmax=69 / qpstep=4 / cplxblur=20.0 / qblur=0.5 / ip_ratio=1.40 / aq=3:1.00
Default : Да
Forced : Нет
Аудио #1
Идентификатор : 2
Формат : AAC
Формат/Информация : Advanced Audio Codec
Профиль формата : HE-AAC / LC
Идентификатор кодека : A_AAC
Продолжительность : 1 ч. 28 м.
Битрейт : 76,0 Кбит/сек
Каналы : 2 канала
Расположение каналов : Front: L R
Частота : 48,0 КГц / 24,0 КГц
Частота кадров : 23,438 кадра/сек (1024 SPF)
Метод сжатия : С потерями
Задержка видео : 1 с. 31 мс.
Размер потока : 48,3 Мбайт (6%)
Заголовок : MVO
Язык : Russian
Default : Да
Forced : Нет
Аудио #2
Идентификатор : 3
Формат : AAC
Формат/Информация : Advanced Audio Codec
Профиль формата : HE-AAC / LC
Идентификатор кодека : A_AAC
Продолжительность : 1 ч. 28 м.
Битрейт : 76,0 Кбит/сек
Каналы : 2 канала
Расположение каналов : Front: L R
Частота : 48,0 КГц / 24,0 КГц
Частота кадров : 23,438 кадра/сек (1024 SPF)
Метод сжатия : С потерями
Задержка видео : 31 мс.
Размер потока : 48,2 Мбайт (6%)
Язык : Russian
Default : Нет
Forced : Нет
Текст #1
Идентификатор : 4
Формат : UTF-8
Идентификатор кодека : S_TEXT/UTF8
Идентификатор кодека/Информация : UTF-8 Plain Text
Продолжительность : 1 ч. 23 м.
Битрейт : 79 бит/сек
ElementCount : 850
Размер потока : 48,6 Кбайт (0%)
Заголовок : Русские
Язык : Russian
Default : Нет
Forced : Нет
Текст #2
Идентификатор : 5
Формат : UTF-8
Идентификатор кодека : S_TEXT/UTF8
Идентификатор кодека/Информация : UTF-8 Plain Text
Продолжительность : 1 ч. 27 м.
Битрейт : 42 бит/сек
ElementCount : 849
Размер потока : 27,3 Кбайт (0%)
Заголовок : английские
Язык : English
Default : Да
Forced : Нет





   Похожие торренты   Торрент   Размер 
В этой теме нет новых непрочитанных сообщений. Ниндзя из Беверли Хиллз / Beverly Hills Ninja (1997) HDTVRip-AVC | P, A

368 | 7

2.18 ГБ

В этой теме нет новых непрочитанных сообщений. Ниндзя из Беверли Хиллз / Beverly Hills Ninja (1997) HDRip от Scarabey | P

74 | 17

1.45 ГБ

В этой теме нет новых непрочитанных сообщений. Ниндзя из Беверли Хиллз / Beverly Hills Ninja (1997) HDRip от Scarabey | P

18 | 7

746.15 МБ

В этой теме нет новых непрочитанных сообщений. Ниндзя из Беверли Хиллз / Beverly Hills Ninja (1997) HDRip от ivandubskoj

222 | 20

1.46 ГБ

В этой теме нет новых непрочитанных сообщений. Взятие Беверли Хиллз / Захват Беверли Хиллз / The Taking of Beverly Hills (1991) HDTV 1080i от Generalfilm

22 | 3

3.42 ГБ

В этой теме нет новых непрочитанных сообщений. Взятие Беверли Хиллз / Захват Беверли Хиллз / The Taking of Beverly Hills (1991) HDTVRip-AVC | P2

6 | 11

1.44 ГБ

В этой теме нет новых непрочитанных сообщений. Отряд Беверли Хиллз / Troop Beverly Hills (1989) WEB-DLRip-AVC | P

28 | 10

1.46 ГБ




Вы не можете начинать темы
Вы не можете отвечать на сообщения
Вы не можете редактировать свои сообщения
Вы не можете удалять свои сообщения
Вы не можете добавлять вложения

Перейти:  
 Вход
ppkBB3cker v.2 © 2008-2014 @ PPK
[ Time : 0.036s | 17 Queries | GZIP : Off ]

cron