img image001 image001 image001 image001 image001 image001 image001 image001 image001 image001 image001 image001 image001 image001 image001 image001

Planets Sun Sun Sun
Статистика раздачи
Автор: Снежана | Размер: 2.93 ГБ | Добавлен: 14 авг 2018
Раздают: 38    Качают: 1
Скачать торрент
Скачать торрент
Описание торрента

СообщениеДобавлено: 14 авг 2018 

Падшая звезда / Broken Star
«Fame is to die for»


Год выпуска: 2018
Страна: США
Производство: Kandoo Films
Жанр: Триллер
Режиссёр: Дэйв Швеп
В ролях: Аналит Типтон, Тайлер Лабин, Лорен Боулз, Моника Коулмэн, Наташа Лоринг, Алекс Ломбард, Скотт Хэмм, Джош Дэвис, Адисон Бель, Кевин Росс
Перевод: Профессиональный (многоголосый, закадровый) | HDRezka Studio
Субтитры: Английские (полные)
Реклама: Отсутствует
Описание: Известная актриса Марки Марло после нападения на собственную мать и сестру попадает под домашний арест. Чтобы не портить свою репутацию, девушке приходится жить в другом доме с неизвестным молодым человеком. Спустя некоторое время Марки замечает камеры повсюду и начинает подозревать своего соседа в слежке. Кто он: маньяк или талантливый режиссер?

Качество: WEB-DL 720p | iTunes Version |
Продолжительность: 01:29:43
Формат: MKV
Видео кодек: MPEG-4 AVC
Аудио кодек: AC3
Видео: 1280x546 (2.35:1), 23,976 fps, x264 ~4 094 kbps avg, 0.244 bit/pixel
Аудио #1: 48 kHz, AC3 Dolby Digital, 2 (L,R) ch, ~192.00 kbps avg | RUS (HDRezka Studio)
Аудио #2: 48 kHz, AC3 Dolby Digital Plus, 3/2 (L,C,R,l,r) + LFE ch, ~384.00 kbps avg | ENG
Дата премьеры (мир): 20 июля 2018
Дата премьеры (РФ): 20 сентября 2018, «Экспонента»

Релиз от:
Общее
Уникальный идентификатор : 308603525898235516342952974414786978726 (0xE82AE08CB62E98320660A9009681E3A6)
Полное имя : F:OlLanDGroupBroken.Star.2018.WEB-DL(720p).OlLanDGroup.mkv
Формат : Matroska
Версия формата : Version 4 / Version 2
Размер файла : 2,93 Гбайт
Продолжительность : 1 ч. 29 м.
Общий поток : 4672 Кбит/сек
Название фильма : Broken.Star.2018 #TorpedoUK#
Дата кодирования : UTC 2018-08-14 04:53:11
Программа кодирования : mkvmerge v25.0.0 ('Prog Noir') 64-bit
Библиотека кодирования : libebml v1.3.6 + libmatroska v1.4.9
Видео
Идентификатор : 1
Формат : AVC
Формат/Информация : Advanced Video Codec
Профиль формата : High@L3.1
Параметр CABAC формата : Нет
Параметр ReFrames формата : 2 кадра
Идентификатор кодека : V_MPEG4/ISO/AVC
Продолжительность : 1 ч. 29 м.
Битрейт : 4094 Кбит/сек
Ширина : 1280 пикселей
Высота : 546 пикселей
Соотношение сторон : 2,35:1
Режим частоты кадров : Постоянный
Частота кадров : 23,976 (24000/1001) кадра/сек
Цветовое пространство : YUV
Субдискретизация насыщенности : 4:2:0
Битовая глубина : 8 бит
Тип развёртки : Прогрессивная
Бит/(Пиксели*Кадры) : 0.244
Размер потока : 2,57 Гбайт (88%)
Язык : English
Default : Да
Forced : Нет
Цветовой диапазон : Limited
Основные цвета : BT.709
Характеристики трансфера : BT.709
Коэффициенты матрицы : BT.709
Аудио #1
Идентификатор : 2
Формат : AC-3
Формат/Информация : Audio Coding 3
Расширение режима : CM (complete main)
Параметр Endianness формата : Big
Идентификатор кодека : A_AC3
Продолжительность : 1 ч. 29 м.
Вид битрейта : Постоянный
Битрейт : 192 Кбит/сек
Каналы : 2 канала
Расположение каналов : Front: L R
Частота : 48,0 КГц
Частота кадров : 31,250 кадров/сек (1536 spf)
Битовая глубина : 16 бит
Метод сжатия : С потерями
Задержка видео : -42 мс.
Размер потока : 123 Мбайт (4%)
Заголовок : MVO [HDRezka Studio]
Язык : Russian
Default : Да
Forced : Нет
Аудио #2
Идентификатор : 3
Формат : AC-3
Формат/Информация : Audio Coding 3
Расширение режима : CM (complete main)
Параметр Endianness формата : Big
Идентификатор кодека : A_AC3
Продолжительность : 1 ч. 29 м.
Вид битрейта : Постоянный
Битрейт : 384 Кбит/сек
Каналы : 6 каналов
Расположение каналов : Front: L C R, Side: L R, LFE
Частота : 48,0 КГц
Частота кадров : 31,250 кадров/сек (1536 spf)
Битовая глубина : 16 бит
Метод сжатия : С потерями
Задержка видео : -42 мс.
Размер потока : 246 Мбайт (8%)
Заголовок : Original
Язык : English
Default : Нет
Forced : Нет
Текст
Идентификатор : 4
Формат : UTF-8
Идентификатор кодека : S_TEXT/UTF8
Идентификатор кодека/Информация : UTF-8 Plain Text
Продолжительность : 1 ч. 26 м.
Битрейт : 43 бит/сек
Count of elements : 901
Размер потока : 27,6 Кбайт (0%)
Заголовок : Full
Язык : English
Default : Нет
Forced : Нет
Меню
00:00:00.000 : en:Chapter 1
00:10:35.635 : en:Chapter 2
00:22:23.342 : en:Chapter 3
00:35:33.131 : en:Chapter 4
00:48:35.913 : en:Chapter 5
00:57:41.458 : en:Chapter 6
01:09:17.153 : en:Chapter 7
01:16:45.601 : en:Chapter 8
01:27:00.215 : en:Chapter 9







   Похожие торренты   Торрент   Размер 
В этой теме нет новых непрочитанных сообщений. Падшая звезда / Broken Star (2018) WEB-DL 1080p от OlLanDGroup | HDRezka Studio

49 | 0

3.24 ГБ

В этой теме нет новых непрочитанных сообщений. Падшая звезда / Broken Star (2018) WEB-DLRip от MegaPeer | HDRezka Studio

86 | 0

1.46 ГБ

В этой теме нет новых непрочитанных сообщений. Падшая звезда / Broken Star (Дэйв Швеп) [2018, Триллер, WEBDLRip] MVO

33 | 4

1.26 ГБ

В этой теме нет новых непрочитанных сообщений. Код 211 / 211 (2018) WEB-DLRip-AVC от OlLanDGroup | HDRezka Studio

0 | 0

1.46 ГБ

В этой теме нет новых непрочитанных сообщений. Тихое место / A Quiet Place (2018) WEB-DLRip-AVC от OlLanDGroup | HDRezka Studio

38 | 12

1.46 ГБ

В этой теме нет новых непрочитанных сообщений. Тихое место / A Quiet Place (2018) BDRip-AVC от OlLanDGroup | HDRezka Studio

62 | 19

1.4 ГБ

В этой теме нет новых непрочитанных сообщений. 2036, происхождение неизвестно / 2036 Origin Unknown (2018) WEB-DLRip-AVC от OlLanDGroup | HDRezka Studio

33 | 7

1.46 ГБ




Вы не можете начинать темы
Вы не можете отвечать на сообщения
Вы не можете редактировать свои сообщения
Вы не можете удалять свои сообщения
Вы не можете добавлять вложения

Перейти:  
 Вход
ppkBB3cker v.2 © 2008-2014 @ PPK
[ Time : 0.040s | 17 Queries | GZIP : Off ]

cron