img image001 image001 image001 image001 image001 image001 image001 image001 image001 image001 image001 image001 image001 image001 image001 image001

Planets Sun Sun Sun
Статистика раздачи
Автор: Снежана | Размер: 2.17 ГБ | Добавлен: 14 авг 2018
Раздают: 0    Качают: 0
Скачать торрент
Скачать торрент
Описание торрента

СообщениеДобавлено: 14 авг 2018 

Информация о фильме
Название: Всё, что угодно
Оригинальное название: Anything
Год выхода: 2017
Жанр: Драма, мелодрама
Режиссер: Тимоти МакНил
В ролях: Джон Кэрролл Линч, Мэтт Бомер, Мора Тирни, Марго Бингхэм, Майкл Ботмэн, Тэннер Бьюкэнэн, Меган Кокс, Брук Калбертсон, Клаудия Дурмит, Джейсон Грин и другие
О фильме:
Стареющий мужчина тяжело переживает смерть жены и после попытки суицида уезжает из своего маленького городка в Миссури в Калифорнию, где знакомится с непривычной для него голливудской публикой и заводит тесную дружбу с трансгендером.

Страна: США, Chaotik, ONEZERO Films, Slendro Media
Продолжительность: 01:33:57
Перевод: Любительский (двухголосый закадровый) | HiWay Grope
Файл
Кодек: MPEG-4 AVC/x.264
Качество: WEBRip 720p
Видео: 1280x528, 23.976 fps, ~2863 kbps, 0.177 bit/pixel
Звук:
Аудио rus: AC3, 48 kHz, 6 ch, 384 Kbps
Субтитры: отсутствуют
Реклама: присутствует
Семпл
General
Unique ID : 247896042372381351910191212039554748065 (0xBA7F0A862F71B5E2E69B8147BE484EA1)
Complete name : D:Anything.2018.720p.WEBRip.HiWayGropeAnything.2018.720p.WEBRip.HiWayGrope.mkv
Format : Matroska
Format version : Version 4 / Version 2
File size : 2.17 GiB
Duration : 1h 33mn
Overall bit rate : 3 313 Kbps
Encoded date : UTC 2018-08-14 04:51:27
Writing application : mkvmerge v21.0.0 ('Tardigrades Will Inherit The Earth') 64-bit
Writing library : libebml v1.3.5 + libmatroska v1.4.8
Video
ID : 1
Format : AVC
Format/Info : Advanced Video Codec
Format profile : Main@L4.1
Format settings, CABAC : Yes
Format settings, ReFrames : 4 frames
Codec ID : V_MPEG4/ISO/AVC
Duration : 1h 33mn
Bit rate : 2 863 Kbps
Width : 1 280 pixels
Height : 528 pixels
Display aspect ratio : 2.40:1
Frame rate mode : Constant
Frame rate : 23.976 (24000/1001) fps
Standard : NTSC
Color space : YUV
Chroma subsampling : 4:2:0
Bit depth : 8 bits
Scan type : Progressive
Bits/(Pixel*Frame) : 0.177
Stream size : 1.88 GiB (86%)
Language : English
Default : Yes
Forced : No
Color range : Limited
Color primaries : BT.601 NTSC
Transfer characteristics : BT.601
Matrix coefficients : BT.601
Audio
ID : 2
Format : AC-3
Format/Info : Audio Coding 3
Mode extension : CM (complete main)
Format settings, Endianness : Big
Codec ID : A_AC3
Duration : 1h 33mn
Bit rate mode : Constant
Bit rate : 384 Kbps
Channel(s) : 6 channels
Channel positions : Front: L C R, Side: L R, LFE
Sampling rate : 48.0 KHz
Frame rate : 31.250 fps (1536 spf)
Compression mode : Lossy
Stream size : 258 MiB (12%)
Language : Russian
Default : Yes
Forced : No


Релиз от: HiWay Grope



   Похожие торренты   Торрент   Размер 
В этой теме нет новых непрочитанных сообщений. Всё, что угодно / Anything (2017) WEBRip | L2

22 | 0

1.29 ГБ

В этой теме нет новых непрочитанных сообщений. Проси меня о чём угодно / Ask Me Anything (2014) WEB-DLRip 720p | L1

493 | 34

3 ГБ

В этой теме нет новых непрочитанных сообщений. Где угодно / Everywhen (2013) BDRip 720p от CINEMANIA | L1

375 | 177

3.48 ГБ

В этой теме нет новых непрочитанных сообщений. Где угодно / Everywhen (2013) DVDRip от GOLIAF | L1

1443 | 46

1.36 ГБ

В этой теме нет новых непрочитанных сообщений. Где угодно, только не здесь / Anywhere But Here (1999) WEB-DLRip от MegaPeer | P

8 | 0

747.66 МБ

В этой теме нет новых непрочитанных сообщений. Где угодно, только не здесь / Anywhere But Here (1999) WEB-DLRip от MegaPeer | P

35 | 44

1.46 ГБ

В этой теме нет новых непрочитанных сообщений. Где угодно / Everywhen (2013) BDRip 1080p от CINEMANIA | L1

347 | 144

4.57 ГБ




Вы не можете начинать темы
Вы не можете отвечать на сообщения
Вы не можете редактировать свои сообщения
Вы не можете удалять свои сообщения
Вы не можете добавлять вложения

Перейти:  
 Вход
ppkBB3cker v.2 © 2008-2014 @ PPK
[ Time : 0.038s | 18 Queries | GZIP : Off ]

cron