img image001 image001 image001 image001 image001 image001 image001 image001 image001 image001 image001 image001 image001 image001 image001 image001

Planets Sun Sun Sun
Статистика раздачи
Автор: Снежана | Размер: 1.29 ГБ | Добавлен: 14 авг 2018
Раздают: 22    Качают: 0
Скачать торрент
Скачать торрент
Описание торрента

СообщениеДобавлено: 14 авг 2018 

Информация о фильме
Название: Всё, что угодно
Оригинальное название: Anything
Год выхода: 2017
Жанр: Драма, мелодрама
Режиссер: Тимоти МакНил
В ролях: Джон Кэрролл Линч, Мэтт Бомер, Мора Тирни, Марго Бингхэм, Майкл Ботмэн, Тэннер Бьюкэнэн, Меган Кокс, Брук Калбертсон, Клаудия Дурмит, Джейсон Грин и другие
О фильме:
Стареющий мужчина тяжело переживает смерть жены и после попытки суицида уезжает из своего маленького городка в Миссури в Калифорнию, где знакомится с непривычной для него голливудской публикой и заводит тесную дружбу с трансгендером.

Страна: США, Chaotik, ONEZERO Films, Slendro Media
Продолжительность: 01:33:57
Перевод: Любительский (двухголосый закадровый) | HiWay Grope
Файл
Кодек: XviD
Качество: WEBRip
Видео: 720x304, 23.976 fps, ~1579 kbps, 0.30 bit/pixel
Звук:
Аудио rus: AC3, 48 kHz, 6 ch, 384 Kbps
Субтитры: отсутствуют
Реклама: присутствует
Семпл
General
Complete name : D:Anything.2018.WEBRip.HiWayGropeAnything.2018.WEBRip.HiWayGrope.avi
Format : AVI
Format/Info : Audio Video Interleave
File size : 1.29 GiB
Duration : 1h 33mn
Overall bit rate : 1 973 Kbps
Writing application : VirtualDubMod 1.5.10.3 (build 2550/release)
Writing library : VirtualDubMod build 2550/release
Video
ID : 0
Format : MPEG-4 Visual
Format profile : Advanced Simple@L5
Format settings, BVOP : 1
Format settings, QPel : No
Format settings, GMC : No warppoints
Format settings, Matrix : Default (MPEG)
Codec ID : XVID
Codec ID/Hint : XviD
Duration : 1h 33mn
Bit rate : 1 579 Kbps
Width : 720 pixels
Height : 304 pixels
Display aspect ratio : 2.35:1
Frame rate : 23.976 (23976/1000) fps
Color space : YUV
Chroma subsampling : 4:2:0
Bit depth : 8 bits
Scan type : Progressive
Compression mode : Lossy
Bits/(Pixel*Frame) : 0.301
Stream size : 1.04 GiB (80%)
Writing library : XviD 73
Audio
ID : 1
Format : AC-3
Format/Info : Audio Coding 3
Mode extension : CM (complete main)
Format settings, Endianness : Big
Codec ID : 2000
Duration : 1h 33mn
Bit rate mode : Constant
Bit rate : 384 Kbps
Channel(s) : 6 channels
Channel positions : Front: L C R, Side: L R, LFE
Sampling rate : 48.0 KHz
Frame rate : 31.250 fps (1536 spf)
Compression mode : Lossy
Stream size : 258 MiB (19%)
Alignment : Split accross interleaves
Interleave, duration : 42 ms (1.00 video frame)
Interleave, preload duration : 500 ms


Релиз от: HiWay Grope



   Похожие торренты   Торрент   Размер 
В этой теме нет новых непрочитанных сообщений. Всё, что угодно / Anything (2017) WEBRip 720p | L2

0 | 0

2.17 ГБ

В этой теме нет новых непрочитанных сообщений. Где угодно / Everywhen (2013) DVDRip от GOLIAF | L1

1443 | 46

1.36 ГБ

В этой теме нет новых непрочитанных сообщений. Где угодно, только не здесь / Anywhere But Here (1999) WEB-DLRip от MegaPeer | P

35 | 44

1.46 ГБ

В этой теме нет новых непрочитанных сообщений. Где угодно, только не здесь / Anywhere But Here (1999) WEB-DLRip от MegaPeer | P

8 | 0

747.66 МБ

В этой теме нет новых непрочитанных сообщений. Проси меня о чём угодно / Ask Me Anything (2014) WEB-DLRip 720p | L1

493 | 34

3 ГБ

В этой теме нет новых непрочитанных сообщений. Где угодно / Everywhen (2013) BDRip 720p от CINEMANIA | L1

375 | 177

3.48 ГБ

В этой теме нет новых непрочитанных сообщений. Где угодно / Everywhen (2013) BDRip 1080p от CINEMANIA | L1

347 | 144

4.57 ГБ




Вы не можете начинать темы
Вы не можете отвечать на сообщения
Вы не можете редактировать свои сообщения
Вы не можете удалять свои сообщения
Вы не можете добавлять вложения

Перейти:  
 Вход
ppkBB3cker v.2 © 2008-2014 @ PPK
[ Time : 0.035s | 17 Queries | GZIP : Off ]

cron