img image001 image001 image001 image001 image001 image001 image001 image001 image001 image001 image001 image001 image001 image001 image001 image001

Planets Sun Sun Sun
Статистика раздачи
Автор: Снежана | Размер: 8.93 ГБ | Добавлен: 14 авг 2018
Раздают: 8    Качают: 0
Скачать торрент
Скачать торрент
Описание торрента

СообщениеДобавлено: 14 авг 2018 

Информация о фильме
Название: Вознесение
Оригинальное название: The Rapture
Год выхода: 1991
Жанр: Драма, детектив
Режиссер: Майкл Толкин
В ролях: Мими Роджерс, Дарвин Карсон, Патрик Бошо, Марвин Элкинс, Дэвид Духовны, Стефани Менуэз, Сэм Влахос, Растем Бренемен, Скотт Баркхолдер
О фильме:
Привлекательная женщина, работающая телефонной операционисткой, пытается разнообразить свою унылую и однообразную жизнь сексуальными приключениями. Не найдя в этом утешения, безуспешно пытается покончить с собой. Кажется, единственное, что может помочь ей обрести душевное равновесие — религия…

Страна: США
Студия: New Line Cinema
Продолжительность: 01:40:13
Перевод: Любительский двухголосый | den904 & DeadSno
Файл
Кодек: x264
Качество: WEB-DL 1080p
Видео: MPEG-4 AVC, 11.8 Mбит/с, 1920x1080
Звук #1: Русский | AC3, 6 ch, 448 Кбит/с | Любительский двухголосый | den904 & DeadSno
Звук #2: Английский | EAC3, 2 ch, 224 Кбит/с
Субтитры: Русские, английские

Формат : Matroska
Версия формата : Version 2
Размер файла : 8,93 Гбайт
Продолжительность : 1 ч. 40 м.
Режим общего битрейта : Переменный
Общий поток : 12,8 Мбит/сек
Название фильма : The.Rapture.1991.1080p.AMZN.WEB-DLby.zzZGVvv
Дата кодирования : UTC 2018-08-14 06:37:24
Программа кодирования : mkvmerge v5.8.0 ('No Sleep / Pillow') built on Sep 2 2012 15:37:04
Библиотека кодирования : libebml v1.2.3 + libmatroska v1.3.0
Attachements : cover.jpg
Видео
Идентификатор : 1
Формат : AVC
Формат/Информация : Advanced Video Codec
Профиль формата : High@L4
Параметр CABAC формата : Да
Параметр ReFrames формата : 4 кадра
Идентификатор кодека : V_MPEG4/ISO/AVC
Продолжительность : 1 ч. 40 м.
Вид битрейта : Переменный
Битрейт : 11,8 Мбит/сек
Максимальный битрейт : 15,0 Мбит/сек
Ширина : 1920 пикселей
Высота : 1080 пикселей
Соотношение сторон : 16:9
Режим частоты кадров : Постоянный
Частота кадров : 23,976 кадра/сек
Цветовое пространство : YUV
Субдискретизация насыщенности : 4:2:0
Битовая глубина : 8 бит
Тип развёртки : Прогрессивная
Бит/(Пиксели*Кадры) : 0.238
Размер потока : 8,28 Гбайт (93%)
Заголовок : The.Rapture.1991.1080p.AMZN.WEB-DL.DDP2.0
Библиотека кодирования : x264 core 148 r2623 d5b2374
Настройки программы : cabac=1 / ref=4 / deblock=1:-1:-1 / analyse=0x3:0x133 / me=umh / subme=9 / psy=1 / psy_rd=1.00:0.15 / mixed_ref=1 / me_range=24 / chroma_me=1 / trellis=2 / 8x8dct=1 / cqm=0 / deadzone=21,11 / fast_pskip=1 / chroma_qp_offset=-3 / threads=34 / lookahead_threads=5 / sliced_threads=0 / nr=150 / decimate=1 / interlaced=0 / bluray_compat=0 / constrained_intra=0 / bframes=8 / b_pyramid=2 / b_adapt=2 / b_bias=0 / direct=3 / weightb=1 / open_gop=0 / weightp=2 / keyint=120 / keyint_min=61 / scenecut=0 / intra_refresh=0 / rc_lookahead=120 / rc=crf / mbtree=1 / crf=18.0 / qcomp=0.60 / qpmin=0 / qpmax=69 / qpstep=4 / vbv_maxrate=15000 / vbv_bufsize=31250 / crf_max=0.0 / nal_hrd=vbr / filler=0 / ip_ratio=1.40 / aq=3:1.00
Язык : English
Default : Да
Forced : Нет
Цветовой диапазон : Limited
Основные цвета : BT.709
Характеристики трансфера : BT.709
Коэффициенты матрицы : BT.709
Аудио #1
Идентификатор : 2
Формат : AC-3
Формат/Информация : Audio Coding 3
Расширение режима : CM (complete main)
Параметр Endianness формата : Big
Идентификатор кодека : A_AC3
Продолжительность : 1 ч. 40 м.
Вид битрейта : Постоянный
Битрейт : 448 Кбит/сек
Каналы : 6 каналов
Расположение каналов : Front: L C R, Side: L R, LFE
Частота : 48,0 КГц
Метод сжатия : С потерями
Размер потока : 321 Мбайт (4%)
Заголовок : DVO [den904 & DeadSno]
Язык : Russian
Default : Да
Forced : Нет
Аудио #2
Идентификатор : 3
Формат : E-AC-3
Формат/Информация : Audio Coding 3
Параметр Endianness формата : Big
Идентификатор кодека : A_EAC3
Продолжительность : 1 ч. 40 м.
Вид битрейта : Постоянный
Битрейт : 224 Кбит/сек
Каналы : 2 канала
Расположение каналов : Front: L R
Частота : 48,0 КГц
Метод сжатия : С потерями
Размер потока : 161 Мбайт (2%)
Язык : English
Default : Нет
Forced : Нет
Текст #1
Идентификатор : 4
Формат : UTF-8
Идентификатор кодека : S_TEXT/UTF8
Идентификатор кодека/Информация : UTF-8 Plain Text
Язык : Russian
Default : Нет
Forced : Нет
Текст #2
Идентификатор : 5
Формат : UTF-8
Идентификатор кодека : S_TEXT/UTF8
Идентификатор кодека/Информация : UTF-8 Plain Text
Язык : English
Default : Нет
Forced : Нет
Текст #3
Идентификатор : 6
Формат : UTF-8
Идентификатор кодека : S_TEXT/UTF8
Идентификатор кодека/Информация : UTF-8 Plain Text
Заголовок : SDH
Язык : English
Default : Нет
Forced : Нет



   Похожие торренты   Торрент   Размер 
В этой теме нет новых непрочитанных сообщений. Вознесение / The Rapture (1991) WEB-DLRip | L2

65 | 22

1.36 ГБ

В этой теме нет новых непрочитанных сообщений. Everybody's Gone to the Rapture (2016) PC | Лицензия

58 | 7

6.3 ГБ

В этой теме нет новых непрочитанных сообщений. Everybody's Gone to the Rapture (2016) PC | RePack от TorrMen

43 | 4

3.7 ГБ

В этой теме нет новых непрочитанных сообщений. Anita Baker - Rapture (1986) MP3

15 | 4

95.2 МБ

В этой теме нет новых непрочитанных сообщений. Хроники последних дней / Everybody's Gone to the Rapture [v1.01] (2016) PC

52 | 7

6.77 ГБ

В этой теме нет новых непрочитанных сообщений. Восторг Палуза / Rapture-Palooza (2013) HDRip | ТНТ

138 | 17

1.45 ГБ

В этой теме нет новых непрочитанных сообщений. Новый апокалипсис. Молния судьбы / Rapture (2012) TVRip

194 | 59

1.37 ГБ




Вы не можете начинать темы
Вы не можете отвечать на сообщения
Вы не можете редактировать свои сообщения
Вы не можете удалять свои сообщения
Вы не можете добавлять вложения

Перейти:  
 Вход
ppkBB3cker v.2 © 2008-2014 @ PPK
[ Time : 0.038s | 15 Queries | GZIP : Off ]

cron