img image001 image001 image001 image001 image001 image001 image001 image001 image001 image001 image001 image001 image001 image001 image001 image001

Planets Sun Sun Sun
Статистика раздачи
Автор: Снежана | Размер: 4.52 ГБ | Добавлен: 14 авг 2018
Раздают: 2    Качают: 3
Скачать торрент
Скачать торрент
Описание торрента

СообщениеДобавлено: 14 авг 2018 

Информация о фильме
Год выхода: 2014
Наименование: Ты спишь, Николь
Оригинальное наименование: Tu dors Nicole
Страна: Канада
Жанр: драма, комедия
Режиссер постановщик: Стефан ЛаФлер
В главных ролях: Джулианна Коте, Пьер-Люк Лафонтейн, Люк Сени, Катрин Сен-Лоран, Марк-Андре Гронден, Френсис Ла Хэй, Саймон Лярош
О фильме: Николь безмятежно проводит лето в родительском доме вместе с лучшей подругой Вероникой. Внезапно появляется ее старший брат вместе со своими товарищами по музыкальной группе. Ситуация складывается таким образом, что отношения подруг оказываются поставлены под угрозу. Усложняет положение и 10-летний мальчик, за которым Николь должна присматривать, и ее усиливающаяся бессонница.

Файл
Качество: HDRip 720p
Видео данные: MKV, 1280x696 (1.85:1), 23.976 fps, 6121 Кбит/с
Аудио данные: AC3, 2 ch, 640 Кбит/с
Перевод: Любительский многоголосый (GreenРай Studio)
Продолжительность: 01:33:43
General
Unique ID : 224829645781685815522961152132585414501 (0xA9249D5E450F1B86BEF774459424DF65)
Complete name : D:ГРИНРАЙTu.Dors.Nicole.2014.P.BDRip.720p.mkv
Format : Matroska
Format version : Version 2
File size : 4.52 GiB
Duration : 1 h 33 min
Overall bit rate : 6 899 kb/s
Encoded date : UTC 2018-08-13 08:46:15
Writing application : mkvmerge v7.8.0 ('River Man') 32bit built on Apr 3 2015 12:11:22
Writing library : libebml v1.3.1 + libmatroska v1.4.2
Video
ID : 1
Format : AVC
Format/Info : Advanced Video Codec
Format profile : High@L3.1
Format settings : CABAC / 4 Ref Frames
Format settings, CABAC : Yes
Format settings, RefFrames : 4 frames
Codec ID : V_MPEG4/ISO/AVC
Duration : 1 h 33 min
Bit rate : 6 121 kb/s
Width : 1 280 pixels
Height : 696 pixels
Display aspect ratio : 1.85:1
Frame rate mode : Constant
Frame rate : 23.976 FPS
Color space : YUV
Chroma subsampling : 4:2:0
Bit depth : 8 bits
Scan type : Progressive
Bits/(Pixel*Frame) : 0.287
Stream size : 4.01 GiB (89%)
Writing library : x264 core 146 r2538 121396c
Encoding settings : cabac=1 / ref=1 / deblock=1:0:0 / analyse=0x3:0x113 / me=hex / subme=2 / psy=1 / psy_rd=1.00:0.00 / mixed_ref=0 / me_range=16 / chroma_me=1 / trellis=0 / 8x8dct=1 / cqm=0 / deadzone=21,11 / fast_pskip=1 / chroma_qp_offset=0 / threads=18 / lookahead_threads=5 / sliced_threads=0 / nr=0 / decimate=1 / interlaced=0 / bluray_compat=0 / constrained_intra=0 / bframes=3 / b_pyramid=2 / b_adapt=1 / b_bias=0 / direct=1 / weightb=1 / open_gop=0 / weightp=1 / keyint=250 / keyint_min=23 / scenecut=40 / intra_refresh=0 / rc_lookahead=10 / rc=crf / mbtree=1 / crf=13.5 / qcomp=0.60 / qpmin=0 / qpmax=69 / qpstep=4 / ip_ratio=1.40 / aq=1:1.00
Default : Yes
Forced : No
Audio
ID : 2
Format : AC-3
Format/Info : Audio Coding 3
Codec ID : A_AC3
Duration : 1 h 33 min
Bit rate mode : Constant
Bit rate : 640 kb/s
Channel(s) : 2 channels
Channel positions : Front: L R
Sampling rate : 48.0 kHz
Frame rate : 31.250 FPS (1536 SPF)
Bit depth : 16 bits
Compression mode : Lossy
Stream size : 429 MiB (9%)
Service kind : Complete Main
Default : Yes
Forced : No

Внимание, имеется видео и аудио реклама от спонсора показа

Релиз от:



   Похожие торренты   Торрент   Размер 
В этой теме нет новых непрочитанных сообщений. Ты спишь, Николь / Tu dors Nicole (2014) HDRip | GreenРай Studio

4 | 0

1.37 ГБ

В этой теме нет новых непрочитанных сообщений. Ты спишь, Николь / Tu dors Nicole (2014) HDRip 1080p | GreenРай Studio

3 | 0

6.51 ГБ

В этой теме нет новых непрочитанных сообщений. Козимо и Николь / Cosimo e Nicole (2012) HDRip | L1

58 | 15

1.47 ГБ

В этой теме нет новых непрочитанных сообщений. Козимо и Николь / Cosimo e Nicole (2012) HDRip-AVC | L1

32 | 7

744.38 МБ

В этой теме нет новых непрочитанных сообщений. Анна Николь / Anna Nicole (2013) WEB-DL 720p | P

775 | 150

2.7 ГБ

В этой теме нет новых непрочитанных сообщений. Козимо и Николь / Cosimo e Nicole (2012) BDRip 720p | L1

19 | 13

5.01 ГБ

В этой теме нет новых непрочитанных сообщений. Анна Николь / Anna Nicole (2013) WEB-DLRip | P

1326 | 228

1.37 ГБ




Вы не можете начинать темы
Вы не можете отвечать на сообщения
Вы не можете редактировать свои сообщения
Вы не можете удалять свои сообщения
Вы не можете добавлять вложения

Перейти:  
 Вход
ppkBB3cker v.2 © 2008-2014 @ PPK
[ Time : 0.019s | 16 Queries | GZIP : Off ]

cron