img image001 image001 image001 image001 image001 image001 image001 image001 image001 image001 image001 image001 image001 image001 image001 image001

Planets Sun Sun Sun
Статистика раздачи
Автор: Снежана | Размер: 5.42 ГБ | Добавлен: 14 авг 2018
Раздают: 11    Качают: 3
Скачать торрент
Скачать торрент
Описание торрента

СообщениеДобавлено: 14 авг 2018 

Авалон / Avalon
Страна: Япония Польша
Производство: Dentsu Productions Ltd., Bandai Visual Co. Ltd., Deiz Production, Media Factory, Nippon Herald Films
Год выпуска: 2001
Жанр: фантастика, фэнтези, боевик, триллер, драма
Продолжительность: 01:46:54
Режиссер: Мамору Осии
Автор сценария: Кадзунори Ито
В ролях: Малгожата Форемняк, Владислав Ковальский, Ежи Гудейко, Дариуш Бискупски, Бартломей Свидерский, Катажина Баргеловска, Алиция Сапрык
Описание: В отдалённом будущем человечество осваивает виртуальный мир компьютерной игры под названием «Авалон». Лишь немногим удается достичь в игре финального уровня, а те, кто возвращаются с него, впадают в коматозное состояние, почти не отличающееся от смерти.
Чтобы попытаться спасти своего возлюбленного от этой участи, героиня фильма преисполнена решимости пройти всю игру по его стопам и встретиться в финале с загадочным персонажем по имени «Призрак».

Перевод: 3х Профессиональный (двухголосый, закадровый)
Субтитры: русские, английские

Качество: BDRip 720p
Формат: МКV
Видео кодек: AVC
Аудио кодек: АС3
Видео: 1280x692 (1.85:1), 23.976 fps, MPEG-4 AVC ~5 592 kbps avg
Аудио №1: 48.0 kHz, AC3 Dolby Digital, 3/2 (L,C,R,l,r) + LFE ch, ~448 kbps | RUS / DVO
Аудио №2: 48.0 kHz, AC3 Dolby Digital, 3/2 (L,C,R,l,r) + LFE ch, ~384 kbps | RUS / DVO
Аудио №3: 48.0 kHz, AC3 Dolby Digital, 3/2 (L,C,R,l,r) + LFE ch, ~384 kbps | RUS / DVO
Аудио №4: 48.0 kHz, AC3 Dolby Digital, 3/2 (L,C,R,l,r) + LFE ch, ~448 kbps | Polish
Формат субтитров: русские / Advanced Sub Station Alpha, английские / UTF-8 Plain Text
Дата премьеры (мир): 20 января 2001
Дата премьеры (РФ): 18 июля 2002, «Централ Партнершип»
Релиз от:
General
Уникальный идентификатор : 255024930132641334064677383774093481832 (0xBFDC03D3D05358129642774AAE349768)
Полное имя : Avalon.2001.BDRip.720p by msltel.mkv
Формат : Matroska
Версия формата : Version 4 / Version 2
Размер файла : 5,42 Гбайт
Продолжительность : 1 ч. 47 м.
Общий поток : 7243 Кбит/сек
Название фильма : Rip by msltel
Дата кодирования : UTC 2018-08-14 06:22:23
Программа кодирования : mkvmerge v8.2.0 ('World of Adventure') 64bit
Библиотека кодирования : libebml v1.3.1 + libmatroska v1.4.2
Видео
Идентификатор : 1
Формат : AVC
Формат/Информация : Advanced Video Codec
Профиль формата : High@L4.1
Настройки формата : CABAC / 9 Ref Frames
Параметр CABAC формата : Да
Параметр RefFrames формата : 9 кадров
Идентификатор кодека : V_MPEG4/ISO/AVC
Продолжительность : 1 ч. 46 м.
Битрейт : 5592 Кбит/сек
Ширина : 1280 пикселей
Высота : 692 пикселя
Соотношение сторон : 1,85:1
Режим частоты кадров : Постоянный
Частота кадров : 23,976 (24000/1001) кадра/сек
Цветовое пространство : YUV
Субдискретизация насыщенности : 4:2:0
Битовая глубина : 8 бит
Тип развёртки : Прогрессивная
Бит/(Пиксели*Кадры) : 0.263
Размер потока : 4,18 Гбайт (77%)
Библиотека кодирования : x264 core 155 r2901 7d0ff22
Настройки программы : cabac=1 / ref=9 / deblock=1:-3:-2 / analyse=0x3:0x113 / me=umh / subme=11 / psy=1 / psy_rd=1.00:0.15 / mixed_ref=1 / me_range=32 / chroma_me=1 / trellis=2 / 8x8dct=1 / cqm=0 / deadzone=21,11 / fast_pskip=0 / chroma_qp_offset=-3 / threads=6 / lookahead_threads=1 / sliced_threads=0 / nr=0 / decimate=1 / interlaced=0 / bluray_compat=0 / constrained_intra=0 / bframes=15 / b_pyramid=2 / b_adapt=2 / b_bias=0 / direct=1 / weightb=1 / open_gop=0 / weightp=2 / keyint=230 / keyint_min=23 / scenecut=40 / intra_refresh=0 / rc_lookahead=40 / rc=crf / mbtree=1 / crf=16.2 / qcomp=0.60 / qpmin=0 / qpmax=69 / qpstep=4 / vbv_maxrate=62500 / vbv_bufsize=78125 / crf_max=0.0 / nal_hrd=none / filler=0 / ip_ratio=1.40 / aq=1:1.00
Язык : Polish
Default : Да
Forced : Нет
Аудио #1
Идентификатор : 2
Формат : AC-3
Формат/Информация : Audio Coding 3
Идентификатор кодека : A_AC3
Продолжительность : 1 ч. 46 м.
Вид битрейта : Постоянный
Битрейт : 448 Кбит/сек
Каналы : 6 каналов
Расположение каналов : Front: L C R, Side: L R, LFE
Частота : 48,0 КГц
Частота кадров : 31,250 кадров/сек (1536 SPF)
Битовая глубина : 16 бит
Метод сжатия : С потерями
Размер потока : 341 Мбайт (6%)
Заголовок : DVO CP-Digital
Язык : Russian
Default : Да
Forced : Нет
Аудио #2
Идентификатор : 3
Формат : AC-3
Формат/Информация : Audio Coding 3
Идентификатор кодека : A_AC3
Продолжительность : 1 ч. 46 м.
Вид битрейта : Постоянный
Битрейт : 384 Кбит/сек
Каналы : 6 каналов
Расположение каналов : Front: L C R, Side: L R, LFE
Частота : 48,0 КГц
Частота кадров : 31,250 кадров/сек (1536 SPF)
Битовая глубина : 16 бит
Метод сжатия : С потерями
Размер потока : 292 Мбайт (5%)
Заголовок : DVO вариант 1
Язык : Russian
Default : Нет
Forced : Нет
Аудио #3
Идентификатор : 4
Формат : AC-3
Формат/Информация : Audio Coding 3
Идентификатор кодека : A_AC3
Продолжительность : 1 ч. 46 м.
Вид битрейта : Постоянный
Битрейт : 384 Кбит/сек
Каналы : 6 каналов
Расположение каналов : Front: L C R, Side: L R, LFE
Частота : 48,0 КГц
Частота кадров : 31,250 кадров/сек (1536 SPF)
Битовая глубина : 16 бит
Метод сжатия : С потерями
Размер потока : 293 Мбайт (5%)
Заголовок : DVO вариант 2
Язык : Russian
Default : Нет
Forced : Нет
Аудио #4
Идентификатор : 5
Формат : AC-3
Формат/Информация : Audio Coding 3
Идентификатор кодека : A_AC3
Продолжительность : 1 ч. 47 м.
Вид битрейта : Постоянный
Битрейт : 448 Кбит/сек
Каналы : 6 каналов
Расположение каналов : Front: L C R, Side: L R, LFE
Частота : 48,0 КГц
Частота кадров : 31,250 кадров/сек (1536 SPF)
Битовая глубина : 16 бит
Метод сжатия : С потерями
Размер потока : 343 Мбайт (6%)
Заголовок : original
Язык : Polish
Default : Нет
Forced : Нет
Текст #1
Идентификатор : 6
Формат : ASS
Идентификатор кодека : S_TEXT/ASS
Идентификатор кодека/Информация : Advanced Sub Station Alpha
Продолжительность : 1 ч. 40 м.
Битрейт : 56 бит/сек
ElementCount : 567
Метод сжатия : Без потерь
Размер потока : 41,5 Кбайт (0%)
Заголовок : русские
Язык : Russian
Default : Нет
Forced : Нет
Текст #2
Идентификатор : 7
Формат : UTF-8
Идентификатор кодека : S_TEXT/UTF8
Идентификатор кодека/Информация : UTF-8 Plain Text
Продолжительность : 1 ч. 32 м.
Битрейт : 18 бит/сек
ElementCount : 450
Размер потока : 12,7 Кбайт (0%)
Заголовок : английские
Язык : English
Default : Нет
Forced : Нет
Меню
00:00:00.000 : en:00:00:00.000
00:10:31.464 : en:00:10:31.464
00:18:01.121 : en:00:18:01.121
00:23:37.916 : en:00:23:37.916
00:27:40.700 : en:00:27:40.700
00:33:11.531 : en:00:33:11.531
00:39:22.360 : en:00:39:22.360
00:43:30.482 : en:00:43:30.482
00:48:29.740 : en:00:48:29.740
00:54:06.910 : en:00:54:06.910
00:59:59.137 : en:00:59:59.137
01:07:23.247 : en:01:07:23.247
01:16:14.278 : en:01:16:14.278
01:20:41.503 : en:01:20:41.503
01:28:07.156 : en:01:28:07.156
01:38:48.923 : en:01:38:48.923



   Похожие торренты   Торрент   Размер 
В этой теме нет новых непрочитанных сообщений. Авалон / Avalon (2001) BDRip-AVC от Bathory | P2

292 | 9

2.23 ГБ

В этой теме нет новых непрочитанных сообщений. Школа Авалон / Avalon High (2010) HDTVRip 720p | P

167 | 26

9.48 ГБ

В этой теме нет новых непрочитанных сообщений. Авалон / Avalon (1990) HDRip от Scarabey | D

1 | 0

1.45 ГБ

В этой теме нет новых непрочитанных сообщений. 2001 год: Космическая одиссея / 2001: A Space Odyssey (1968) BDRip 720p | D, P, P2, A

65 | 3

7.76 ГБ

В этой теме нет новых непрочитанных сообщений. Matenrou Opera - Avalon (2014) MP3

45 | 7

124.99 МБ

В этой теме нет новых непрочитанных сообщений. Timo Tolkki's Avalon - Angels Of The Apocalypse (2014) Mp3

98 | 4

115.76 МБ

В этой теме нет новых непрочитанных сообщений. Enaid - Avalon. A Celtic Legend (2002) MP3 от BestSound ExKinoRay

22 | 2

99.79 МБ




Вы не можете начинать темы
Вы не можете отвечать на сообщения
Вы не можете редактировать свои сообщения
Вы не можете удалять свои сообщения
Вы не можете добавлять вложения

Перейти:  
 Вход
ppkBB3cker v.2 © 2008-2014 @ PPK
[ Time : 0.028s | 15 Queries | GZIP : Off ]

cron