img image001 image001 image001 image001 image001 image001 image001 image001 image001 image001 image001 image001 image001 image001 image001 image001

Planets Sun Sun Sun
Статистика раздачи
Автор: Снежана | Размер: 3.15 ГБ | Добавлен: 14 авг 2018
Раздают: 6    Качают: 0
Скачать торрент
Скачать торрент
Описание торрента

СообщениеДобавлено: 14 авг 2018 

Информация о фильме
Название: Вампирская глина
Оригинальное название: Chi o su nendo
Год выхода: 2017
Жанр: ужасы
Режиссер: Соити Умэдзава
В ролях: Эна Фудзита, Асука Куросава, Юю Макихара, Рё Синода, Момока Сугимото, Кёка Такэда, Кандзи Цуда
Описание:
Где-то в японской провинции рядом с художественной школой учительница находит пакет с замечательной глиной. Не пропадать же добру — из этой глины ученицы слепят скульптуры, а позже скульптуры слепят учениц.

Страна: Япония
Продолжительность: 01:21:00
Перевод: Любительский одноголосый (Хихикающий доктор)
Файл
Формат: MKV
Качество: WEB-DL 1080p
Видео: MPEG-4 AVC, 5365 Кбит/с, 1920x1080
Аудио: 44.100 kHz, MPEG Layer 3, 2 ch, ~192.00 kbps avg rus
Трейлер
Небольшая реклама в титрах

Unique ID : 216104550069432472753603674052464637241 (0xA29438EFD7A99797BBF131DBBD6A7539)
Complete name : C:Vampire.Clay.2018.Xixidok.mkv
Format : Matroska
Format version : Version 4 / Version 2
File size : 3.15 GiB
Duration : 1 h 21 min
Overall bit rate mode : Variable
Overall bit rate : 5 547 kb/s
Encoded date : UTC 2018-08-14 08:29:14
Writing application : mkvmerge v8.3.0 ('Over the Horizon') 64bit
Writing library : libebml v1.3.1 + libmatroska v1.4.2
Video
ID : 1
Format : AVC
Format/Info : Advanced Video Codec
Format profile : High@L4
Format settings : CABAC / 4 Ref Frames
Format settings, CABAC : Yes
Format settings, RefFrames : 4 frames
Codec ID : V_MPEG4/ISO/AVC
Duration : 1 h 21 min
Bit rate mode : Variable
Bit rate : 5 365 kb/s
Maximum bit rate : 15.0 Mb/s
Width : 1 920 pixels
Height : 1 080 pixels
Display aspect ratio : 16:9
Frame rate mode : Constant
Frame rate : 23.976 (24000/1001) FPS
Color space : YUV
Chroma subsampling : 4:2:0
Bit depth : 8 bits
Scan type : Progressive
Bits/(Pixel*Frame) : 0.108
Stream size : 3.04 GiB (97%)
Default : Yes
Forced : No
Color range : Limited
Color primaries : BT.709
Transfer characteristics : BT.709
Matrix coefficients : BT.709
Audio
ID : 2
Format : MPEG Audio
Format version : Version 1
Format profile : Layer 3
Codec ID : A_MPEG/L3
Codec ID/Hint : MP3
Duration : 1 h 21 min
Bit rate mode : Constant
Bit rate : 192 kb/s
Channel(s) : 2 channels
Sampling rate : 44.1 kHz
Frame rate : 38.281 FPS (1152 SPF)
Compression mode : Lossy
Stream size : 112 MiB (3%)
Default : Yes
Forced : No



   Похожие торренты   Торрент   Размер 
В этой теме нет новых непрочитанных сообщений. Ольга Арефьева и Ковчег - Глина (2016) MP3

32 | 0

132.57 МБ

В этой теме нет новых непрочитанных сообщений. Кристофер Мур - Вампирская сага 3. Выкуси (2015) MP3

31 | 1

716.86 МБ

В этой теме нет новых непрочитанных сообщений. Кристофер Мур - Вампирская сага 2. На подсосе (2015) MP3

24 | 0

770.58 МБ

В этой теме нет новых непрочитанных сообщений. Кристофер Мур - Вампирская сага. Изверги-кровососы (2015) MP3

77 | 1

860.61 МБ

В этой теме нет новых непрочитанных сообщений. Обида / Вампирская история / Umbrage / A Vampires tale (2009) WEB-DLRip | L2

294 | 75

1.33 ГБ

В этой теме нет новых непрочитанных сообщений. Евровидение 2017. 1-й полуфинал / Eurovision 2017: Final (2017) WEB-DL 1080p

0 | 0

4.13 ГБ

В этой теме нет новых непрочитанных сообщений. Евровидение 2017. 1-й полуфинал / Eurovision 2017: Final (2017) WEB-DL 1080p

30 | 16

8.37 ГБ




Вы не можете начинать темы
Вы не можете отвечать на сообщения
Вы не можете редактировать свои сообщения
Вы не можете удалять свои сообщения
Вы не можете добавлять вложения

Перейти:  
 Вход
ppkBB3cker v.2 © 2008-2014 @ PPK
[ Time : 0.022s | 17 Queries | GZIP : Off ]

cron