img image001 image001 image001 image001 image001 image001 image001 image001 image001 image001 image001 image001 image001 image001 image001 image001

Planets Sun Sun Sun
Статистика раздачи
Автор: Снежана | Размер: 1.98 ГБ | Добавлен: 14 авг 2018
Раздают: 9    Качают: 0
Скачать торрент
Скачать торрент
Описание торрента

СообщениеДобавлено: 14 авг 2018 

Информация о фильме
Название: Кристина
Оригинальное название: Christine
Год выхода: 1983
Жанр: ужасы, триллер, драма, детектив
Режиссер: Джон Карпентер
В ролях: Кит Гордон, Джон Стокуэлл, Александра Пол, Роберт Проски, Гарри Дин Стэнтон, Кристин Белфорд, Робертс Блоссом, Уильям Острандер, Дэвид Спилберг, Мальколм Дэнар
О фильме:
Ее зовут Кристина. Ее классические формы вызывают восхищение. Она соблазняет 17-летнего Арни Каннингэма и делает его своим слугой. У нее нет и не может быть соперниц, ибо она их убивает. Она требует беспрекословного подчинения.
Она… автомобиль! Чтобы сохранить свою жизнь, юноша должен посвятить ее жестокой Кристине. История роскошного красного Плимута 1958 года полна страшных тайн. Все его предыдущие хозяева погибли. И юный Ромео должен стать очередной жертвой ненасытной Джульетты.

Страна: США
Продолжительность: 01:49:59
Перевод: Профессиональный (многоголосый закадровый) Видеосервис
Файл
Кодек: x.264
Качество: HDRip-AVC | исх. BDRip1080p
Видео: h264 / 2200 kbps / 1024x426 / 23.976 fps
Звук: 48 kHz / 384 kbps
Субтитры: Нет
Релиз от: Alukard14
avs [info]: 1024x426p 1:1 @ 2500000/104271 fps (cfr)
x264 [info]: using SAR=1/1
x264 [info]: using cpu capabilities: MMX2 SSE2Fast SSSE3 SSE4.2 AVX XOP FMA4 FMA3 LZCNT BMI1
x264 [info]: profile High, level 4.1
x264 [info]: frame I:1481 Avg QP:15.73 size: 71956
x264 [info]: frame P:21934 Avg QP:18.64 size: 26756
x264 [info]: frame B:134817 Avg QP:20.90 size: 8301
x264 [info]: consecutive B-frames: 2.3% 0.2% 0.3% 0.4% 0.5% 0.6% 1.8% 94.0%
x264 [info]: mb I I16..4: 13.5% 66.7% 19.9%
x264 [info]: mb P I16..4: 0.4% 9.5% 1.5% P16..4: 28.6% 38.5% 17.1% 0.0% 0.0% skip: 4.4%
x264 [info]: mb B I16..4: 0.0% 1.2% 0.1% B16..8: 37.4% 21.1% 3.6% direct: 5.6% skip:30.9% L0:45.3% L1:43.2% BI:11.5%
x264 [info]: 8x8 transform intra:80.8% inter:55.1%
x264 [info]: direct mvs spatial:99.0% temporal:1.0%
x264 [info]: coded y,uvDC,uvAC intra: 95.2% 79.2% 53.4% inter: 29.0% 16.9% 4.9%
x264 [info]: i16 v,h,dc,p: 17% 10% 31% 43%
x264 [info]: i8 v,h,dc,ddl,ddr,vr,hd,vl,hu: 10% 10% 9% 9% 13% 12% 13% 11% 14%
x264 [info]: i4 v,h,dc,ddl,ddr,vr,hd,vl,hu: 12% 11% 6% 8% 13% 13% 13% 11% 13%
x264 [info]: i8c dc,h,v,p: 39% 28% 18% 16%
x264 [info]: Weighted P-Frames: Y:5.5% UV:1.8%
x264 [info]: ref P L0: 40.4% 9.8% 20.2% 7.3% 6.4% 4.3% 4.2% 2.0% 2.1% 1.5% 1.7% 0.2% 0.0%
x264 [info]: ref B L0: 70.8% 12.5% 6.3% 3.1% 2.3% 1.9% 1.4% 0.9% 0.5% 0.2%
x264 [info]: ref B L1: 91.6% 8.4%
x264 [info]: kb/s:2197.20

Общее
Уникальный идентификатор : 248012455458005564150941549133649270527 (0xBA957621E62588D0B943981053D5D6FF)
Полное имя : E:TestRipChristine.by.Alukard14.mkv
Формат : Matroska
Версия формата : Version 2
Размер файла : 1,98 Гбайт
Продолжительность : 1 ч. 49 м.
Общий поток : 2583 Кбит/сек
Дата кодирования : UTC 2018-08-14 01:13:12
Программа кодирования : mkvmerge v6.9.1 ('Blue Panther') 32bit built on Apr 18 2014 18:15:44
Библиотека кодирования : libebml v1.3.0 + libmatroska v1.4.1
Видео
Идентификатор : 1
Формат : AVC
Формат/Информация : Advanced Video Codec
Профиль формата : High@L4.1
Настройки формата : CABAC / 11 Ref Frames
Параметр CABAC формата : Да
Параметр RefFrames формата : 11 кадров
Идентификатор кодека : V_MPEG4/ISO/AVC
Продолжительность : 1 ч. 49 м.
Битрейт : 2200 Кбит/сек
Ширина : 1024 пикселя
Высота : 426 пикселей
Соотношение сторон : 2,40:1
Режим частоты кадров : Постоянный
Частота кадров : 23,976 кадра/сек
Цветовое пространство : YUV
Субдискретизация насыщенности : 4:2:0
Битовая глубина : 8 бит
Тип развёртки : Прогрессивная
Бит/(Пиксели*Кадры) : 0.210
Размер потока : 1,65 Гбайт (83%)
Библиотека кодирования : x264 core 148 r2638 7599210
Настройки программы : cabac=1 / ref=11 / deblock=1:-3:-3 / analyse=0x3:0x113 / me=umh / subme=11 / psy=1 / psy_rd=1.00:0.20 / mixed_ref=1 / me_range=48 / chroma_me=1 / trellis=2 / 8x8dct=1 / cqm=0 / deadzone=21,11 / fast_pskip=0 / chroma_qp_offset=-3 / threads=9 / lookahead_threads=1 / sliced_threads=0 / nr=0 / decimate=0 / interlaced=0 / bluray_compat=0 / constrained_intra=0 / bframes=7 / b_pyramid=2 / b_adapt=0 / b_bias=0 / direct=3 / weightb=1 / open_gop=0 / weightp=2 / keyint=240 / keyint_min=24 / scenecut=40 / intra_refresh=0 / rc_lookahead=40 / rc=2pass / mbtree=1 / bitrate=2200 / ratetol=1.0 / qcomp=0.60 / qpmin=0 / qpmax=69 / qpstep=2 / cplxblur=20.0 / qblur=0.5 / vbv_maxrate=14000 / vbv_bufsize=14000 / nal_hrd=none / filler=0 / ip_ratio=1.40 / aq=1:1.00
Default : Да
Forced : Нет
Аудио
Идентификатор : 2
Формат : AC-3
Формат/Информация : Audio Coding 3
Идентификатор кодека : A_AC3
Продолжительность : 1 ч. 49 м.
Вид битрейта : Постоянный
Битрейт : 384 Кбит/сек
Каналы : 6 каналов
Расположение каналов : Front: L C R, Side: L R, LFE
Частота : 48,0 КГц
Частота кадров : 31,250 кадров/сек (1536 SPF)
Битовая глубина : 16 бит
Метод сжатия : С потерями
Размер потока : 302 Мбайт (15%)
Default : Да
Forced : Нет




   Похожие торренты   Торрент   Размер 
В этой теме нет новых непрочитанных сообщений. Кристина / Christine (1983) HDRip от Scarabey | Р | Первый канал

22 | 8

744.02 МБ

В этой теме нет новых непрочитанных сообщений. Кристина / Christine (1983) HDRip от Scarabey | Р | Первый канал

150 | 7

1.45 ГБ

В этой теме нет новых непрочитанных сообщений. Кристина / Christine (1983) ВDRip 720р | Р, Р2, А

4 | 1

11.5 ГБ

В этой теме нет новых непрочитанных сообщений. Кристина / Christine (1983) BDRip от HQ-ViDEO

34 | 0

2.18 ГБ

В этой теме нет новых непрочитанных сообщений. Кристина / Christine (1983) BDRip 720p от Leonardo and Scarabey | P

0 | 5

5.18 ГБ

В этой теме нет новых непрочитанных сообщений. Кристина / Christine (1983) BDRip-HEVC 1080p от ХиМиК | P, P2, A

47 | 10

3.65 ГБ

В этой теме нет новых непрочитанных сообщений. Кристина / Christine (1983) BDRip 720p от Leonardo and Scarabey | P

616 | 7

3.75 ГБ




Вы не можете начинать темы
Вы не можете отвечать на сообщения
Вы не можете редактировать свои сообщения
Вы не можете удалять свои сообщения
Вы не можете добавлять вложения

Перейти:  
 Вход
ppkBB3cker v.2 © 2008-2014 @ PPK
[ Time : 0.024s | 18 Queries | GZIP : Off ]

cron