img image001 image001 image001 image001 image001 image001 image001 image001 image001 image001 image001 image001 image001 image001 image001 image001

Planets Sun Sun Sun
Статистика раздачи
Автор: Снежана | Размер: 1.46 ГБ | Добавлен: 16 авг 2018
Раздают: 20    Качают: 3
Скачать торрент
Скачать торрент
Описание торрента

СообщениеДобавлено: 16 авг 2018 

Геошторм / Geostorm


Перевод: Профессиональный (полное дублирование) Лицензия, субтитры: отсутствуют
Формат: HDRip-AVC, MKV, H.264, AC3
Страна: США
Режиссер: Дин Девлин
Жанр: фантастика, боевик, триллер
Продолжительность: 01:49:07
Год выпуска: 2017
В ролях: Джерард Батлер, Джим Стёрджесс, Эбби Корниш, Александра Мария Лара, Дэниэл Ву, Эухенио Дербес, Амр Вакед, Эдеперо Одуйе, Энди Гарсиа, Эд Харрис, Роберт Шиэн, Ричард Шифф, Мэр Уиннингхэм, Зази Битц, Талита Бейтман, Даниэлла Гарсиа-Лоридо, Ричи Монтгомери, Билли Слотер, Грегори Алан Уильямс, Дэвид Дженсен, Дерек Робертс, Нэйтан Мур, Катрин Эштон, Рэндолл Ньюсом, Дуглас М. Гриффин

Описание: После беспрецедентной серии стихийных бедствий, обрушившихся на нашу планету, лидеры мировых держав объединили усилия, чтобы создать разветвленную сеть орбитальных спутников по контролю над климатом для предотвращения природных катаклизмов. Но что-то пошло не так — система, выстроенная для защиты Земли, теперь угрожает ей. Начинается гонка наперегонки со временем, в которой надо успеть обнаружить реальную угрозу до того, как всемирный Геошторм сотрёт с лица Земли всё живое.



Видео: 1024x432 (2,40:1), 23,976 fps, AVC MPEG4 (x264), ~1430 kbps avg, 0.135 bit/pixel
Аудио: 48 kHz, AC3 Dolby Digital, 6/0 (L C R, Side: L R, LFE) ch, ~448 kbps
General
Unique ID : 195997754245669352140250905423047984378 (0x9373CB5D5E4E8E2C4DACF5D310AE84FA)
Complete name : C:\Users\Юрик\Desktop\Geoshtorm.2017.DUAL.BDRip-AVC_[tfile.ru].mkv
Format : Matroska
Format version : Version 2
File size : 1.46 GiB
Duration : 1h 49mn
Overall bit rate : 1 916 Kbps
Writing application : Lavf55.12.100
Writing library : Lavf55.12.100 / Lavf55.12.100

Video
ID : 2
Format : AVC
Format/Info : Advanced Video Codec
Format profile :
Format settings, CABAC : Yes
Format settings, ReFrames : 2 frames
Format settings, GOP : M=1, N=12
Codec ID : V_MPEG4/ISO/AVC
Duration : 1h 49mn
Bit rate : 1 430 Kbps
Width : 1 024 pixels
Height : 432 pixels
Display aspect ratio : 2.40:1
Frame rate mode : Constant
Frame rate : 23.976 (24000/1001) fps
Color space : YUV
Chroma subsampling : 4:2:0
Bit depth : 8 bits
Scan type : Progressive
Bits/(Pixel*Frame) : 0.135
Stream size : 1.09 GiB (75%)
Title : potroks
Language : English
Default : Yes
Forced : No

Audio
ID : 1
Format : AC-3
Format/Info : Audio Coding 3
Mode extension : CM (complete main)
Format settings, Endianness : Big
Codec ID : A_AC3
Duration : 1h 49mn
Bit rate mode : Constant
Bit rate : 448 Kbps
Channel(s) : 6 channels
Channel positions : Front: L C R, Side: L R, LFE
Sampling rate : 48.0 KHz
Frame rate : 31.250 fps (1536 spf)
Bit depth : 32 bits
Compression mode : Lossy
Stream size : 350 MiB (23%)
Title : Dub | DD 5.1 @ 448 kbps - Blu-ray CEE
Language : Russian
Default : Yes
Forced : No



















   Похожие торренты   Торрент   Размер 
В этой теме нет новых непрочитанных сообщений. Логан / Logan (Джеймс Мэнголд ) [2017, фантастика, боевик, триллер, драма, HDRip-AVC] DUB / Фантастика

7 | 6

2.19 ГБ

В этой теме нет новых непрочитанных сообщений. Ловкость / Sleight (Джастин Диллард) [2017, фантастика, боевик, триллер, драма, HDRip] MVO / Фантастика

12 | 7

1.36 ГБ

В этой теме нет новых непрочитанных сообщений. Противостояние / The One (Джеймс Вонг) [2001, фантастика, боевик, триллер , HDRip-AVC] DUB / Фантастика

11 | 3

1.45 ГБ

В этой теме нет новых непрочитанных сообщений. Пророк / Next (Ли Тамахори) [2007, фантастика, боевик, триллер, HDRip-AVC] DUB+DVO / Фантастика

5 | 0

2.18 ГБ

В этой теме нет новых непрочитанных сообщений. Луна 44 / Moon 44 (Роланд Эммерих) [1990, фантастика, боевик, триллер, HDRip-AVC] MVO / Фантастика

9 | 0

1.46 ГБ

В этой теме нет новых непрочитанных сообщений. Судный день / Doomsday (Нил Маршалл) [2008, фантастика, боевик, триллер, HDRip-AVC] DUB / Фантастика

16 | 0

2.18 ГБ

В этой теме нет новых непрочитанных сообщений. Крепость / Fortress (Стюарт Гордон) [1992, Фантастика, боевик, триллер, HDRip-AVC] MVO / Фантастика

4 | 0

1.46 ГБ




Вы не можете начинать темы
Вы не можете отвечать на сообщения
Вы не можете редактировать свои сообщения
Вы не можете удалять свои сообщения
Вы не можете добавлять вложения

Перейти:  
 Вход
ppkBB3cker v.2 © 2008-2014 @ PPK
[ Time : 0.035s | 18 Queries | GZIP : Off ]

cron