img image001 image001 image001 image001 image001 image001 image001 image001 image001 image001 image001 image001 image001 image001 image001 image001

Planets Sun Sun Sun
Статистика раздачи
Автор: Снежана | Размер: 2.1 ГБ | Добавлен: 16 авг 2018
Раздают: 1    Качают: 0
Скачать торрент
Скачать торрент
Описание торрента

СообщениеДобавлено: 16 авг 2018 

Гибби / Gibby

Слоган: «Добавь маленькую обезьянку в свою жизнь…»


Перевод: Профессиональный (многоголосый закадровый) [iTunes]
Субтитры: английские [вшитые отключаемые]
Формат: WEBDLRip-AVC, MKV, H.264, AC3
Страна: США
Режиссер: Фил Горн
Жанр: семейный, приключения, комедия
Продолжительность: 01:28:53
Год выпуска: 2016
В ролях: Кристал Манки, Шеннон Элизабет, Пейтон Мейер, Шелби Лион, Иса Пенарехо, Шон Патрик Флэнери, Вивика А. Фокс, Тесс Картел, Эрин Николь Паблико, Сабина Бачино

Описание: Юная Кэтти много грустит и переживает по разным поводам. Она потеряла интерес к учебе и друзьям. Даже занятия любимой гимнастикой ее не радуют. Но все меняется, когда учитель Кэтти просит присмотреть за его домашним питомцем, маленькой обезьянкой Гибби.


Видео: 1024x576 (16:9), 23.976 fps, AVC MPEG-4 (H.264), ~2600 kbps, 0.184 bit/pixel
Аудио #1: Русский: 48 kHz, AC3 Dolby Digital, 3/2 (L,C,R,l,r) + LFE ch, ~384 kbps [Профессиональный (многоголосый закадровый)]
Аудио #2: Английский: 48 kHz, AC3 Dolby Digital, 3/2 (L,C,R,l,r) + LFE ch, ~384 kbps [Оригинал]
Дополнительно: Сохранены оригинальные главы (чаптеры)

Общее
Уникальный идентификатор : 71595844018198006292873582701779913591 (0x35DCDBA527F80C93CEA5A870B9548B77)
Полное имя : F:\Диск\01. ФИЛЬМЫ\Гибби Gibby (2016)\Gibby.2016.mkv
Формат : Matroska
Версия формата : Version 4 / Version 2
Размер файла : 2,10 Гбайт
Продолжительность : 1 ч. 28 м.
Общий поток : 3375 Кбит/сек
Программа кодирования : XviD4PSP 7.0.455 DAILY
Библиотека кодирования : Lavf57.71.100
Примечание : Rip by Basma4i&TorrNADO
ErrorDetectionType : Per level 1
Attachments : poster.jpg
ENCODING_INFO : MATROSKA,WEBM > MKV Пользовательский / H264 > X264 ABR 2600kbps HQ / AC3 > AC3 CBR 384kbps / AC3 > AC3 CBR 384kbps
Язык : und

Видео
Идентификатор : 1
Формат : AVC
Формат/Информация : Advanced Video Codec
Профиль формата :
Настройки формата : CABAC / 7 Ref Frames
Параметр CABAC формата : Да
Параметр RefFrames формата : 7 кадров
Идентификатор кодека : V_MPEG4/ISO/AVC
Продолжительность : 1 ч. 28 м.
Битрейт : 2600 Кбит/сек
Ширина : 1024 пикселя
Высота : 576 пикселей
Соотношение сторон : 16:9
Режим частоты кадров : Постоянный
Частота кадров : 23,976 (24000/1001) кадра/сек
Цветовое пространство : YUV
Субдискретизация насыщенности : 4:2:0
Битовая глубина : 8 бит
Тип развёртки : Прогрессивная
Бит/(Пиксели*Кадры) : 0.184
Размер потока : 1,58 Гбайт (75%)
Библиотека кодирования : x264 core 155 r2901M 7d0ff22
Настройки программы : cabac=1 / ref=8 / deblock=1:-3:-3 / analyse=0x3:0x133 / me=umh / subme=9 / psy=1 / psy_rd=1.00:0.20 / mixed_ref=1 / me_range=32 / chroma_me=1 / trellis=2 / 8x8dct=1 / cqm=0 / deadzone=21,11 / fast_pskip=1 / chroma_qp_offset=-3 / threads=10 / lookahead_threads=1 / sliced_threads=0 / nr=0 / decimate=1 / interlaced=0 / bluray_compat=0 / constrained_intra=0 / bframes=8 / b_pyramid=1 / b_adapt=1 / b_bias=8 / direct=1 / weightb=1 / open_gop=0 / weightp=1 / keyint=240 / keyint_min=24 / scenecut=40 / intra_refresh=0 / rc_lookahead=40 / rc=abr / mbtree=1 / bitrate=2600 / ratetol=1.0 / qcomp=0.60 / qpmin=0 / qpmax=69 / qpstep=4 / ip_ratio=1.40 / aq=1:1.00
Язык : English
Default : Да
Forced : Нет
Цветовой диапазон : Limited
Основные цвета : BT.470 System M
Характеристики трансфера : BT.709
Коэффициенты матрицы : BT.709

Аудио #1
Идентификатор : 2
Формат : AC-3
Формат/Информация : Audio Coding 3
Идентификатор кодека : A_AC3
Продолжительность : 1 ч. 28 м.
Вид битрейта : Постоянный
Битрейт : 384 Кбит/сек
Каналы : 6 каналов
Расположение каналов : Front: L C R, Side: L R, LFE
Частота : 48,0 КГц
Частота кадров : 31,250 кадров/сек (1536 SPF)
Битовая глубина : 16 бит
Метод сжатия : С потерями
Размер потока : 244 Мбайт (11%)
Заголовок : iTunes
Язык : Russian
ServiceKind/String : Complete Main
Default : Да
Forced : Нет

Аудио #2
Идентификатор : 3
Формат : AC-3
Формат/Информация : Audio Coding 3
Идентификатор кодека : A_AC3
Продолжительность : 1 ч. 28 м.
Вид битрейта : Постоянный
Битрейт : 384 Кбит/сек
Каналы : 6 каналов
Расположение каналов : Front: L C R, Side: L R, LFE
Частота : 48,0 КГц
Частота кадров : 31,250 кадров/сек (1536 SPF)
Битовая глубина : 16 бит
Метод сжатия : С потерями
Размер потока : 244 Мбайт (11%)
Язык : English
ServiceKind/String : Complete Main
Default : Нет
Forced : Нет

Текст
Идентификатор : 4
Формат : UTF-8
Идентификатор кодека : S_TEXT/UTF8
Идентификатор кодека/Информация : UTF-8 Plain Text
Язык : English
Default : Да
Forced : Нет

Меню
00:00:00.000 : :Opening Sequence
00:08:07.000 : :Get My Point
00:16:22.000 : :A Monkey All Summer
00:24:57.000 : :You And Tommy Together
00:33:44.000 : :Get To Watch Gibby
00:42:42.000 : :Gibby Motivates Me
00:51:12.000 : :Not Just About Winning
00:57:32.000 : :Glad You're Trying Out
01:05:39.000 : :Monkey On The Run
01:12:01.000 : :A Big Rat
01:18:28.000 : :The Final Competition
01:25:55.000 : :End Credits







Релиз от:



   Похожие торренты   Торрент   Размер 
В этой теме нет новых непрочитанных сообщений. Гибби / Gibby (2016) WEB-DL 720p | iTunes

7 | 0

3.14 ГБ

В этой теме нет новых непрочитанных сообщений. Гибби / Gibby (2016) WEB-DL 1080p | iTunes

2 | 0

3.69 ГБ

В этой теме нет новых непрочитанных сообщений. Гибби / Gibby (2016) WEB-DLRip | iTunes

6 | 0

699.48 МБ

В этой теме нет новых непрочитанных сообщений. Гибби / Gibby (2016) WEB-DLRip | iTunes

203 | 0

1.37 ГБ

В этой теме нет новых непрочитанных сообщений. Приключения Тома Сойера / Tom and Huck (Питер Хьюитт) [1995, драма, комедия, приключения, семейный, WEBDLRip-AVC] MVO / Приключения

5 | 1

2.93 ГБ

В этой теме нет новых непрочитанных сообщений. Наследники 2 / Descendants 2 (Кенни Ортега) [2017, семейный, приключения, фэнтези, комедия, WEBDLRip] MVO

11 | 4

1.36 ГБ

В этой теме нет новых непрочитанных сообщений. Псы под прикрытием / Show Dogs (Раджа Госнелл) [2018, комедия, приключения, семейный, WEBDLRip] DUB

216 | 36

1.37 ГБ




Вы не можете начинать темы
Вы не можете отвечать на сообщения
Вы не можете редактировать свои сообщения
Вы не можете удалять свои сообщения
Вы не можете добавлять вложения

Перейти:  
 Вход
ppkBB3cker v.2 © 2008-2014 @ PPK
[ Time : 0.043s | 16 Queries | GZIP : Off ]

cron