img image001 image001 image001 image001 image001 image001 image001 image001 image001 image001 image001 image001 image001 image001 image001

Planets Sun Sun Sun

COVID-19 - Последняя информация о коронавирусе на сайте Минздрава


Статистика раздачи
Автор: Снежана | Размер: 2.93 ГБ | Добавлен: 20 авг 2018
Раздают: 2    Качают: 3
Скачать торрент
Скачать торрент
Описание торрента

СообщениеДобавлено: 20 авг 2018 

Приключения Тома Сойера / Tom and Huck


Перевод: Профессиональный (многоголосый закадровый), субтитры: отсутствуют
Формат: WEBDLRip-AVC, MKV, H.263, AC3
Страна: США
Режиссер: Питер Хьюитт
Жанр: драма, комедия, приключения, семейный
Продолжительность: 01:31:49
Год выпуска: 1995
В ролях: Джонатан Тейлор Томас, Брэд Ренфро, Эрик Швайг, Чарлз Рокет, Эми айт, Майкл МакШэйн, Мэриэн Селдес, Рэйчел Ли Кук, Лэнни Флаэрти, Кортлэнд Мид, Питер МакКензи
Описание:
От их проделок в ужас приходит вся округа. Кошки и собаки разбегаются, хозяйки запирают окна и двери, малыши плачут. Нет, это не монстры из страшной сказки вышли на улицу города. Просто нам предстоят новые встречи с Томом Сойером и Геком Финном, любимыми героями романа Марка Твена.



Видео: 1280x540 (2.35:1) 23.976 fps, MPEG4 AVC (x263) , 3900 kbps avg, 0.235 bit/pixel
Аудио #1: Русский: 48.0 kHz, AC3 Dolby Digital, 2/0 (L,R) ch, ~192 kbps [профессиональный (многоголосый, закадровый)]
Аудио #2: Английский: 48 kHz, AC3 Dolby Digital, 3/2 (L,C,R,l,r) + LFE ch, ~384.00 kbps avg [оригинал]

Complete name : D:\Приключения_Тома_Сойера.1995.WEB-DLRip-AVC.2,9gb.mkv
Format : Matroska
File size : 2.93 GiB
Duration : 1h 31mn
Overall bit rate : 4 567 Kbps
Encoded date : UTC 2018-04-20
Writing application : Lavf55.11.101
Writing library : Lavf55.11.101

Video
ID : 1
Format : AVC
Format/Info : Advanced Video Codec
Format profile :
Format settings, CABAC : No
Format settings, ReFrames : 2 frames
Format settings, GOP : M=2, N=32
Codec ID : V_MPEG4/ISO/AVC
Duration : 1h 31mn
Bit rate mode : Variable
Bit rate : 3 900 Kbps
Width : 1 280 pixels
Height : 540 pixels
Display aspect ratio : 2.35:1
Frame rate : 23.976 fps
Color space : YUV
Chroma subsampling : 4:2:0
Bit depth : 8 bits
Scan type : Progressive
Bits/(Pixel*Frame) : 0.235
Stream size : 2.50 GiB (85%)
Color primaries : BT.709-5, BT.1361, IEC 61966-2-4, SMPTE RP177
Transfer characteristics : BT.709-5, BT.1361
Matrix coefficients : BT.709-5, BT.1361, IEC 61966-2-4 709, SMPTE RP177

Audio #1
ID : 2
Format : AC-3
Format/Info : Audio Coding 3
Mode extension : CM (complete main)
Codec ID : A_AC3
Duration : 1h 31mn
Bit rate mode : Constant
Bit rate : 192 Kbps
Channel(s) : 2 channels
Channel positions : Front: L R
Sampling rate : 48.0 KHz
Bit depth : 16 bits
Stream size : 126 MiB (4%)
Title : MVO
Language : Russian

Audio #2
ID : 3
Format : AC-3
Format/Info : Audio Coding 3
Mode extension : CM (complete main)
Codec ID : A_AC3
Duration : 1h 31mn
Bit rate mode : Constant
Bit rate : 384 Kbps
Channel(s) : 6 channels
Channel positions : Front: L C R, Side: L R, LFE
Sampling rate : 48.0 KHz
Bit depth : 16 bits
Stream size : 252 MiB (8%)
Language : English

















   Похожие торренты   Торрент   Размер 
В этой теме нет новых непрочитанных сообщений. Мастер-шпион / MeesterSpion (Питер ван Рийн) [2016, приключения, комедия, семейный, DVDRip] MVO / Приключения

0 | 0

1.43 ГБ

В этой теме нет новых непрочитанных сообщений. Кенгуру Джекпот / Kangaroo Jack (Дэвид МакНелли) [2003, комедия, криминал, приключения, семейный, WEBDLRip-AVC] DUB+MVO / Приключения

0 | 0

2.18 ГБ

В этой теме нет новых непрочитанных сообщений. 30 безумных желаний / Then Came You (Питер Хатчингс) [2018, драма, комедия, приключения, WEBDLRip] MVO

275 | 11

1.46 ГБ

В этой теме нет новых непрочитанных сообщений. Инопланетяне съели мою домашнюю работу / Aliens Ate My Homework (Шон МакНамара) [2018, фантастика, фэнтези, комедия, приключения, семейный, WEBDLRip] MVO / Приключения

2 | 0

1.45 ГБ

В этой теме нет новых непрочитанных сообщений. Капитан Саблезуб и сокровища Лама Рама / Kaptein Sabeltann og skatten i Lama Rama (Йон Андреас Андерсен, Лиза Мари Гамлем) [2014, боевик, драма, комедия, приключения, семейный, HDRip-AVC] MVO / Приключения

4 | 0

1.46 ГБ

В этой теме нет новых непрочитанных сообщений. Увалень Томми / Tommy Boy (Питер Сигал) [1995, комедия, приключения, LowHDRip-AVC] MVO

8 | 0

745.4 МБ

В этой теме нет новых непрочитанных сообщений. Путешествие в Запретную долину / Journey to the Forbidden Valley (Этан Уайли) [2016, боевик, приключения, семейный, WEBDLRip] MVO / Приключения

44 | 0

1.46 ГБ




Вы не можете начинать темы
Вы не можете отвечать на сообщения
Вы не можете редактировать свои сообщения
Вы не можете удалять свои сообщения
Вы не можете добавлять вложения

Перейти:  
Контактная информация: rstracker[пёсик]yandex.ru
 Вход
ppkBB3cker v.2 © 2008-2014 @ PPK
[ Time : 0.585s | 18 Queries | GZIP : Off ]

cron