img image001 image001 image001 image001 image001 image001 image001 image001 image001 image001 image001 image001 image001 image001 image001

Planets Sun Sun Sun

COVID-19 - Последняя информация о коронавирусе на сайте Минздрава


Статистика раздачи
Автор: Снежана | Размер: 1.46 ГБ | Добавлен: 21 авг 2018
Раздают: 0    Качают: 3
Скачать торрент
Скачать торрент
Описание торрента

СообщениеДобавлено: 21 авг 2018 

Сканирование мозга / Brainscan


Перевод: Профессиональный (многоголосый закадровый), субтитры: отсутствуют
Формат: HDRip-AVC, MKV, H.264, AC3
Страна: Канада, США, Великобритания
Режиссер: Джон Флинн
Жанр: ужасы, фантастика, триллер, комедия
Продолжительность: 01:36:04
Год выпуска: 1994
В ролях: Эдвард Ферлонг, Фрэнк Ланджелла, Т. Райдер Смит, Эми Харгривз, Джеймс Марш, Виктор Эртманис, Дэвид Хемблен, Власта Врана, Доменико Фиоре, Клер Райли

Описание: Когда старшеклассник Майкл приобрел компьютерную интерактивную игру в виртуальной реальности «Сканирование мозга», он и не подозревал, что игрушка колдовским образом проникнет в его подсознание и выпустит на свободу самые потаенные страхи и фантазии. В этой игре нужно совершить убийство, не оставив никаких свидетелей и улик. Игра кажется просто замечательной: острые ощущения и чувство полной реальности происходящего. Но дело в том, что убийства, совершаемые в игре, происходят на самом деле! Майкл пытается остановиться, но через экран компьютера появляется Трикстер, живое воплощение «Сканирования мозга», лестью и угрозами заставляя его играть вновь и вновь. За расследование серии странных преступлений берется детектив Хейден, а многочисленные улики неопровержимо указывают на Майкла…



Видео: 1024x576 (16:9), 23.976 fps, AVC MPEG-4 (x264), ~ 1941 Кбит/сек, 0.137 bit/pixel
Аудио: 48 kHz, AC3 Dolby Digital, 2/0 (L,R) ch, ~192.00 kbps avg
General
Unique ID : 115199437611672184456062013476721471714 (0x56AA9ACA2A2B4B02BE730221786530E2)
Complete name : C:\Users\Юрик\Desktop\Сканирование мозга (1994)_[tfile.ru].mkv
Format : Matroska
Format version : Version 2
File size : 1.46 GiB
Duration : 1h 36mn
Overall bit rate : 2 176 Kbps
Writing application : Lavf55.12.100
Writing library : Lavf55.12.100 / Lavf55.12.100

Video
ID : 2
Format : AVC
Format/Info : Advanced Video Codec
Format profile :
Format settings, CABAC : Yes
Format settings, ReFrames : 2 frames
Format settings, GOP : M=1, N=12
Codec ID : V_MPEG4/ISO/AVC
Duration : 1h 36mn
Bit rate : 1 941 Kbps
Width : 1 024 pixels
Height : 576 pixels
Display aspect ratio : 16:9
Frame rate mode : Constant
Frame rate : 23.976 (24000/1001) fps
Color space : YUV
Chroma subsampling : 4:2:0
Bit depth : 8 bits
Scan type : Progressive
Bits/(Pixel*Frame) : 0.137
Stream size : 1.30 GiB (89%)
Title : MPEG-4, 1080x608, 23.976 fps ~2048 kbps
Language : English
Default : Yes
Forced : No
Statistics Tags Issue : mkvmerge v24.0.0 ('Beyond The Pale') 64-bit 2018-08-20 08:07:16 / Lavf55.12.100
FromStats_BitRate : 2048125
FromStats_Duration : 01:36:03.925000000
FromStats_FrameCount : 138196
FromStats_StreamSize : 1475654895

Audio
ID : 1
Format : AC-3
Format/Info : Audio Coding 3
Mode extension : CM (complete main)
Format settings, Endianness : Big
Codec ID : A_AC3
Duration : 1h 36mn
Bit rate mode : Constant
Bit rate : 192 Kbps
Channel(s) : 2 channels
Channel positions : Front: L R
Sampling rate : 48.0 KHz
Frame rate : 31.250 fps (1536 spf)
Bit depth : 32 bits
Compression mode : Lossy
Delay relative to video : 5ms
Stream size : 132 MiB (9%)
Title : AC3 2 ch, 48 kHz ~192 kbps - MVO [Союз Видео]
Language : Russian
Default : Yes
Forced : No
Statistics Tags Issue : mkvmerge v24.0.0 ('Beyond The Pale') 64-bit 2018-08-20 08:07:16 / Lavf55.12.100
FromStats_BitRate : 192000
FromStats_Duration : 01:36:02.400000000
FromStats_FrameCount : 180075
FromStats_StreamSize : 138297600

















   Похожие торренты   Торрент   Размер 
В этой теме нет новых непрочитанных сообщений. Сканирование мозга / Brainscan (1994) HDRip от Scarabey | P

47 | 1

1.45 ГБ

В этой теме нет новых непрочитанных сообщений. Сканирование мозга / Brainscan (1994) WEB-DLRip-AVC | P, P2, A

15 | 109

2.16 ГБ

В этой теме нет новых непрочитанных сообщений. Сканирование мозга / Brainscan (1994) WEB-DL 720p | P, P2, A

32 | 30

3.49 ГБ

В этой теме нет новых непрочитанных сообщений. Факультет / The Faculty (Роберт Родригес ) [1998, ужасы, фантастика, триллер, комедия, BDRip-AVC] MVO / Фантастика

4 | 0

746.81 МБ

В этой теме нет новых непрочитанных сообщений. Нападение акул на Нью-Джерси / Jersey Shore Shark Attack (Джон Шеппирд ) [2012, ужасы, фантастика, боевик, триллер, комедия, HDRip] MVO / Мистика

2 | 3

1.45 ГБ

В этой теме нет новых непрочитанных сообщений. Побег из Лос-Анджелеса / Escape from L.A. (Джон Карпентер) [1996, фантастика, боевик, триллер, приключения, HDRip-AVC] MVO / Фантастика

2 | 0

1.46 ГБ

В этой теме нет новых непрочитанных сообщений. Вирус / Virus (Джон Бруно) [1999, ужасы, фантастика, боевик, триллер, BDRip-AVC] DUB / Фантастика

4 | 0

745.74 МБ




Вы не можете начинать темы
Вы не можете отвечать на сообщения
Вы не можете редактировать свои сообщения
Вы не можете удалять свои сообщения
Вы не можете добавлять вложения

Перейти:  
Контактная информация: rstracker[пёсик]yandex.ru
 Вход
ppkBB3cker v.2 © 2008-2014 @ PPK
[ Time : 0.019s | 16 Queries | GZIP : Off ]

cron