img image001 image001 image001 image001 image001 image001 image001 image001 image001 image001 image001 image001 image001 image001 image001 image001

Planets Sun Sun Sun
Статистика раздачи
Автор: Снежана | Размер: 2.89 ГБ | Добавлен: 22 авг 2018
Раздают: 177    Качают: 12
Скачать торрент
Скачать торрент
Описание торрента

СообщениеДобавлено: 22 авг 2018 

8 подруг Оушена / Ocean's Eight

Перевод: Профессиональный (полное дублирование) iTunes
Субтитры: Русские, английские
Формат: WEB-DLRip-AVC, MKV, H.264, AC3/AAC
Страна: США
Режиссер: Гэри Росс
Жанр: боевик, триллер, комедия, криминал
Продолжительность: 01:50:07
Год выпуска: 2018

В ролях: Сандра Буллок, Кейт Бланшет, Гриффин Данн, Дирдри Гудвин, Энн Хэтэуэй, Минди Кейлинг, Даниэлла Раббани, Брайан Дж. Картер, Сара Полсон, Аквафина

Описание: Пять лет, восемь месяцев, 12 дней… и далее. Именно столько Дебби Оушен разрабатывала план величайшего ограбления своей жизни. Она точно знает, что для него потребуется, — команда лучших в своем деле, начиная с ее давней сообщницы Лу Миллер. Вместе они собирают команду уникальных специалистов. Их цель — неотразимые 150 миллионов долларов в бриллиантах — в бриллиантах на шее всемирно известной актрисы Дафны Клюгер, к которой будет приковано всеобщее внимание на главном событии года — бале в Метрополитен-музее. Сам план бесподобен, но и реализация должна быть безупречна, если они хотят войти и выйти с драгоценностями в руках. Прямо у всех на виду.



Видео: 1280x536p (2.40:1), 23.976 fps, AVC MPEG-4 (H.264), ~2861 kbps, 0.174 bit/pixel
Аудио #1: Русский: 48 kHz, AC3 Dolby Digital, 6 ch, ~384 kbps [Профессиональный (полное дублирование)]
Аудио #2: Украинский: 48 kHz, AАС-LC, 2 ch, ~126 kbps [Профессиональный (полное дублирование)]
Аудио #3: Английский: 48 kHz, AC3 Dolby Digital, 6 ch, ~384 kbps [Оригинал]

Format : Matroska
Format version : Version 4 / Version 2
File size : 2.89 GiB
Duration : 1 h 50 min
Overall bit rate mode : Variable
Overall bit rate : 3 759 kb/s
Movie name : Ocean's Eight 2018 from ExKinoRay
Encoded date : UTC 2018-08-21 18:44:26
Writing application : mkvmerge v7.3.0 ('Nouages') 64bit built on Oct 22 2014 18:53:34
Writing library : libebml v1.3.0 + libmatroska v1.4.1

Video
ID : 1
Format : AVC
Format/Info : Advanced Video Codec
Format profile :
Format settings : CABAC / 4 Ref Frames
Format settings, CABAC : Yes
Format settings, ReFrames : 4 frames
Codec ID : V_MPEG4/ISO/AVC
Duration : 1 h 50 min
Bit rate mode : Variable
Bit rate : 2 861 kb/s
Maximum bit rate : 40.0 Mb/s
Width : 1 280 pixels
Height : 536 pixels
Display aspect ratio : 2.40:1
Frame rate mode : Constant
Frame rate : 23.976 (24000/1001) FPS
Color space : YUV
Chroma subsampling : 4:2:0
Bit depth : 8 bits
Scan type : Progressive
Bits/(Pixel*Frame) : 0.174
Stream size : 2.20 GiB (76%)
Language : English
Default : Yes
Forced : No
Color range : Limited
Color primaries : BT.709
Transfer characteristics : BT.709
Matrix coefficients : BT.709

Audio #1
ID : 2
Format : AC-3
Format/Info : Audio Coding 3
Commercial name : Dolby Digital
Codec ID : A_AC3
Duration : 1 h 50 min
Bit rate mode : Constant
Bit rate : 384 kb/s
Channel(s) : 6 channels
Channel positions : Front: L C R, Side: L R, LFE
Sampling rate : 48.0 kHz
Frame rate : 31.250 FPS (1536 SPF)
Bit depth : 16 bits
Compression mode : Lossy
Stream size : 302 MiB (10%)
Title : iTunes
Language : Russian
Service kind : Complete Main
Default : Yes
Forced : Yes

Audio #2
ID : 3
Format : AAC
Format/Info : Advanced Audio Codec
Format profile : LC
Codec ID : A_AAC-2
Duration : 1 h 50 min
Bit rate : 126 kb/s
Channel(s) : 2 channels
Channel positions : Front: L R
Sampling rate : 48.0 kHz
Frame rate : 46.875 FPS (1024 SPF)
Compression mode : Lossy
Stream size : 99.6 MiB (3%)
Title : iTunes
Language : Ukrainian
Default : No
Forced : No

Audio #3
ID : 4
Format : AC-3
Format/Info : Audio Coding 3
Commercial name : Dolby Digital
Codec ID : A_AC3
Duration : 1 h 50 min
Bit rate mode : Constant
Bit rate : 384 kb/s
Channel(s) : 6 channels
Channel positions : Front: L C R, Side: L R, LFE
Sampling rate : 48.0 kHz
Frame rate : 31.250 FPS (1536 SPF)
Bit depth : 16 bits
Compression mode : Lossy
Stream size : 302 MiB (10%)
Title : Original
Language : English
Service kind : Complete Main
Default : No
Forced : No

Text #1
ID : 5
Format : UTF-8
Codec ID : S_TEXT/UTF8
Codec ID/Info : UTF-8 Plain Text
Duration : 1 h 43 min
Bit rate : 7 b/s
Count of elements : 110
Stream size : 5.79 KiB (0%)
Title : Forced
Language : Russian
Default : Yes
Forced : Yes

Text #2
ID : 6
Format : UTF-8
Codec ID : S_TEXT/UTF8
Codec ID/Info : UTF-8 Plain Text
Duration : 1 h 49 min
Bit rate : 107 b/s
Count of elements : 1381
Stream size : 86.3 KiB (0%)
Title : Full
Language : Russian
Default : No
Forced : No

Text #3
ID : 7
Format : UTF-8
Codec ID : S_TEXT/UTF8
Codec ID/Info : UTF-8 Plain Text
Duration : 1 h 47 min
Bit rate : 7 b/s
Count of elements : 114
Stream size : 5.64 KiB (0%)
Title : Forced
Language : Ukrainian
Default : No
Forced : No

Text #4
ID : 8
Format : UTF-8
Codec ID : S_TEXT/UTF8
Codec ID/Info : UTF-8 Plain Text
Duration : 1 h 43 min
Bit rate : 66 b/s
Count of elements : 1778
Stream size : 50.7 KiB (0%)
Title : Full
Language : English
Default : No
Forced : No

Menu
00:00:00.000 : en:Chapter 1
00:11:17.051 : en:Chapter 2
00:20:05.078 : en:Chapter 3
00:31:36.060 : en:Chapter 4
00:41:28.068 : en:Chapter 5
00:49:17.037 : en:Chapter 6
00:56:21.002 : en:Chapter 7
01:05:48.069 : en:Chapter 8
01:16:30.002 : en:Chapter 9
01:27:00.048 : en:Chapter 10
01:35:41.026 : en:Chapter 11
01:44:07.032 : en:Chapter 12












   Похожие торренты   Торрент   Размер 
В этой теме нет новых непрочитанных сообщений. 8 подруг Оушена / Ocean's Eight (Гэри Росс) [2018, боевик, триллер, комедия, криминал, WEB-DLRip-AVC] 2xDUB (rus, ukr)

242 | 13

1.86 ГБ

В этой теме нет новых непрочитанных сообщений. 8 подруг Оушена / Ocean's Eight (Гэри Росс) [2018, боевик, триллер, комедия, криминал, WEBDLRip] 2xDUB(rus, ukr)

43 | 5

2.18 ГБ

В этой теме нет новых непрочитанных сообщений. 8 подруг Оушена / Ocean's Eight (Гэри Росс) [2018, боевик, триллер, комедия, криминал, HDRip] 2xDUB (rus,ukr)

18 | 3

2.05 ГБ

В этой теме нет новых непрочитанных сообщений. 8 подруг Оушена / Ocean's Eight (Гэри Росс) [2018, боевик, триллер, комедия, криминал, WEB-DLRip-AVC] DUB

67 | 19

745.07 МБ

В этой теме нет новых непрочитанных сообщений. 8 подруг Оушена / Ocean's Eight (Гэри Росс) [2018, боевик, триллер, комедия, криминал, WEB-DLRip-AVC] DUB

44 | 2

1.49 ГБ

В этой теме нет новых непрочитанных сообщений. 8 подруг Оушена / Ocean's Eight (Гэри Росс) [2018, боевик, триллер, комедия, криминал, WEB-DLRip] DUB

1420 | 15

1.46 ГБ

В этой теме нет новых непрочитанных сообщений. 8 подруг Оушена / Ocean's Eight (Гэри Росс) [2018, боевик, триллер, комедия, криминал, BDRip-AVC] DUB

137 | 16

2.18 ГБ




Вы не можете начинать темы
Вы не можете отвечать на сообщения
Вы не можете редактировать свои сообщения
Вы не можете удалять свои сообщения
Вы не можете добавлять вложения

Перейти:  
 Вход
ppkBB3cker v.2 © 2008-2014 @ PPK
[ Time : 0.043s | 18 Queries | GZIP : Off ]

cron