img image001 image001 image001 image001 image001 image001 image001 image001 image001 image001 image001 image001 image001 image001 image001 image001

Planets Sun Sun Sun
Статистика раздачи
Автор: Снежана | Размер: 1.46 ГБ | Добавлен: 13 сен 2018
Раздают: 12    Качают: 0
Скачать торрент
Скачать торрент
Описание торрента

СообщениеДобавлено: 13 сен 2018 

Битва проклятых / Battle of the Damned


Перевод: Любительский (двухголосый) Сладкая парочка, субтитры: отсутствуют
Формат: HDRip-AVC, MKV, H.264, AC3
Страна: США, Сингапур
Режиссер: Кристофер Хаттон
Жанр: ужасы, фантастика, боевик, триллер, приключения
Продолжительность: 01:28:46
Год выпуска: 2013
В ролях: Дольф Лундгрен, Мелани Занетти, Мэтт Доран, Дэвид Филд, Джен Санг Отербридж, Лидия Лук, Ода Мария, Джефф Прюитт, Керри Вонг, Эстебан Куето

Описание: Согласно сюжету, где-то на краю цивилизации тестовая лаборатория лежит в руинах. Из-за досадной ошибки службы безопасности лаборатории произошла катастрофа. Огромное число людей в одночасье превратились в зомби. И лишь небольшая кучка выживших, возглавляемая отважным солдатом Максом Гатлингом, с оружием в руках пробирается сквозь армию мутировавших. Вроде бы, пока все в духе традиционных зомби-хорроров… Однако нашим героям неведома другая смертельная опасность. Из-за все той же аварии на свободе оказались прототипы военных роботов. Хорошо вооруженные, бронированные и чрезвычайно опасные машины по замыслу их создателей должны были в случае непредвиденной ситуации начать немедленную борьбу с живыми мертвецами. Но роботы не были доведены до ума и оказались неспособны отличать обычных людей от зомби.



Видео: 1024x576 (16:9), 23.976 fps, AVC MPEG-4 (H.264), ~1854 kbps, 0.131 bit/pixel
Аудио: 48 kHz, AC3 Dolby Digital, 3/2 (L,C,R,l,r) + LFE ch, ~448 kbps
General
Unique ID : 175692317967447680147147517910151077834 (0x842D1C0FDFF6AEA74E9D3C8826FC1FCA)
Complete name : C:\Users\Юрик\Desktop\Битва проклятых.2013_[tfile.ru].mkv
Format : Matroska
Format version : Version 2
File size : 1.46 GiB
Duration : 1h 28mn
Overall bit rate : 2 348 Kbps
Writing application : Lavf55.12.100
Writing library : Lavf55.12.100 / Lavf55.12.100

Video
ID : 2
Format : AVC
Format/Info : Advanced Video Codec
Format profile :
Format settings, CABAC : Yes
Format settings, ReFrames : 2 frames
Codec ID : V_MPEG4/ISO/AVC
Duration : 1h 28mn
Bit rate : 1 854 Kbps
Width : 1 024 pixels
Height : 576 pixels
Display aspect ratio : 16:9
Frame rate mode : Constant
Frame rate : 23.976 (24000/1001) fps
Color space : YUV
Chroma subsampling : 4:2:0
Bit depth : 8 bits
Scan type : Progressive
Bits/(Pixel*Frame) : 0.131
Stream size : 1.15 GiB (79%)
Title : profile.php?mode=viewprofile&u=22488948
Language : English
Default : Yes
Forced : No
Statistics Tags Issue : mkvmerge v7.4.0 ('Circles') 64bit built on Dec 12 2014 12:19:56 2018-09-10 15:57:19 / Lavf55.12.100
FromStats_BitRate : 4460851
FromStats_Duration : 01:28:40.273000000
FromStats_FrameCount : 127560
FromStats_StreamSize : 2966618542

Audio
ID : 1
Format : AC-3
Format/Info : Audio Coding 3
Mode extension : CM (complete main)
Format settings, Endianness : Big
Codec ID : A_AC3
Duration : 1h 28mn
Bit rate mode : Constant
Bit rate : 448 Kbps
Channel(s) : 6 channels
Channel positions : Front: L C R, Side: L R, LFE
Sampling rate : 48.0 KHz
Frame rate : 31.250 fps (1536 spf)
Bit depth : 32 bits
Compression mode : Lossy
Stream size : 284 MiB (19%)
Title : DVO [Сладкая парочка]
Language : Russian
Default : Yes
Forced : No
Statistics Tags Issue : mkvmerge v7.4.0 ('Circles') 64bit built on Dec 12 2014 12:19:56 2018-09-10 15:57:19 / Lavf55.12.100
FromStats_BitRate : 448000
FromStats_Duration : 01:28:46.240000000
FromStats_FrameCount : 166445
FromStats_StreamSize : 298269440



















   Похожие торренты   Торрент   Размер 
В этой теме нет новых непрочитанных сообщений. Смертельная битва / Mortal Kombat (Пол У. С. Андерсон) [1995, фантастика, фэнтези, боевик, триллер, приключения, BDRip-AVC] MVO / Фантастика

0 | 0

745.74 МБ

В этой теме нет новых непрочитанных сообщений. Прерванная темнота / Broken Darkness (Кристофер-Ли дос Сантос) [2017, Фантастика, Боевик, Триллер, Драма, WEB-DLRip] DVO / Фантастика

21 | 0

1.65 ГБ

В этой теме нет новых непрочитанных сообщений. Тварь / Alien Lockdown (Тим Кокс) [2004, боевик, триллер, ужасы, фантастика, WEBDLRip] MVO / Фантастика

0 | 3

1.47 ГБ

В этой теме нет новых непрочитанных сообщений. Вирус / Virus (Джон Бруно) [1999, ужасы, фантастика, боевик, триллер, BDRip-AVC] DUB / Фантастика

0 | 0

745.74 МБ

В этой теме нет новых непрочитанных сообщений. Галактика ужаса / Galaxy of Terror (Брюс Д. Кларк) [1981, ужасы, фантастика, боевик, приключения, DVDRip] MVO / Фантастика

11 | 0

1.37 ГБ

В этой теме нет новых непрочитанных сообщений. Мегалодон / Megalodon (Джеймс Томас) [2018, фантастика, ужасы, приключения, триллер, боевик, DVDRip] MVO

100 | 0

1.37 ГБ

В этой теме нет новых непрочитанных сообщений. Хищник / The Predator (Шейн Блэк) [2018, фантастика, боевик, ужасы, триллер, приключения, TeleSynch V2] DUB

180 | 2

1.37 ГБ




Вы не можете начинать темы
Вы не можете отвечать на сообщения
Вы не можете редактировать свои сообщения
Вы не можете удалять свои сообщения
Вы не можете добавлять вложения

Перейти:  
 Вход
ppkBB3cker v.2 © 2008-2014 @ PPK
[ Time : 0.020s | 16 Queries | GZIP : Off ]

cron