img image001 image001 image001 image001 image001 image001 image001 image001 image001 image001 image001 image001 image001 image001 image001 image001

Planets Sun Sun Sun
Статистика раздачи
Автор: Снежана | Размер: 1.46 ГБ | Добавлен: 13 сен 2018
Раздают: 4    Качают: 0
Скачать торрент
Скачать торрент
Описание торрента

СообщениеДобавлено: 13 сен 2018 

Власть страха / The Bone collector


Перевод: Профессиональный (полное дублирование), субтитры: отсутствуют
Формат: HDRip-AVC, MKV, H.264, AC3
Страна: США, Канада
Режиссер: Филлип Нойс
Жанр: триллер, драма, криминал, детектив
Продолжительность: 01:57:57
Год выпуска: 1999
В ролях: Дензел Вашингтон, Анджелина Джоли, Куин Латифа, Майкл Рукер, Майк МакГлоун, Луис Гусман, Лиленд Орсер, Джон Бенжамин Хикки, Бобби Каннавале, Эд О’Нил

Описание: Линкольн Райм — знаменитый криминалист, автор множества книг, навсегда прикованный к больничной постели. Амелия Донаги — начинающий полицейский, делающий первые неуверенные шаги по кровавым мостовым. Когда в городе появляется страшный маньяк, она становится глазами и ушами Райма на обезумевших от ужаса улицах.

С ее помощью гений криминалистики пытается разгадать тайный шифр, скрытый в непредсказуемых убийствах…




Видео: 1024x432 (2.40:1), 23.976 fps, AVC MPEG4 (x264), , ~1295 kbps avg, 0.122 bit/pixel
Аудио: 48 kHz, AC3 Dolby Digital, 3/2 (L,C,R,l,r) + LFE ch, ~448.00 kbps avg

General
Unique ID : 257597661258137084530952056822811795884 (0xC1CB8143E2F528C2A628DB46AC3721AC)
Complete name : C:\Users\Юрик\Desktop\Vlast.straha.1999.x264.HDRip.(AVC)_[tfile.ru].mkv
Format : Matroska
Format version : Version 2
File size : 1.46 GiB
Duration : 1h 57mn
Overall bit rate : 1 778 Kbps
Writing application : Lavf55.12.100
Writing library : Lavf55.12.100 / Lavf55.12.100

Video
ID : 2
Format : AVC
Format/Info : Advanced Video Codec
Format profile :
Format settings, CABAC : Yes
Format settings, ReFrames : 2 frames
Format settings, GOP : M=1, N=12
Codec ID : V_MPEG4/ISO/AVC
Duration : 1h 57mn
Bit rate : 1 295 Kbps
Width : 1 024 pixels
Height : 432 pixels
Display aspect ratio : 2.40:1
Frame rate mode : Constant
Frame rate : 23.976 (24000/1001) fps
Color space : YUV
Chroma subsampling : 4:2:0
Bit depth : 8 bits
Scan type : Progressive
Bits/(Pixel*Frame) : 0.122
Stream size : 1.07 GiB (73%)
Language : Russian
Default : Yes
Forced : No

Audio
ID : 1
Format : AC-3
Format/Info : Audio Coding 3
Mode extension : CM (complete main)
Format settings, Endianness : Big
Codec ID : A_AC3
Duration : 1h 57mn
Bit rate mode : Constant
Bit rate : 448 Kbps
Channel(s) : 6 channels
Channel positions : Front: L C R, Side: L R, LFE
Sampling rate : 48.0 KHz
Frame rate : 31.250 fps (1536 spf)
Bit depth : 32 bits
Compression mode : Lossy
Stream size : 378 MiB (25%)
Title : Дублированный (Blu-ray CEE)
Language : Russian
Default : Yes
Forced : No



















   Похожие торренты   Торрент   Размер 
В этой теме нет новых непрочитанных сообщений. Солт [Расширенная версия] / Salt [Unrated Cut] (Филлип Нойс) [2010, боевик, триллер, криминал, детектив, BDRip] AVO

8 | 0

1.47 ГБ

В этой теме нет новых непрочитанных сообщений. Власть страха / The Bone Collector (1999) WEB-DLRip-AVC | D | Open Matte

38 | 9

748.17 МБ

В этой теме нет новых непрочитанных сообщений. Власть страха / The Bone Collector (1999) WEB-DLRip | D | Open Matte

50 | 10

1.45 ГБ

В этой теме нет новых непрочитанных сообщений. Власть страха / The Bone Collector (1999) BDRip 1080p от KORSAR | D, P, P2, A

6 | 3

11.44 ГБ

В этой теме нет новых непрочитанных сообщений. Власть страха / The Bone Collector (1999) BDRip 720p от KORSAR | D, P, P2, A

5 | 2

6.46 ГБ

В этой теме нет новых непрочитанных сообщений. Власть страха / The Bone Collector (1999) BDRip-AVC от Leonardo and Scarabey | D

176 | 15

1.49 ГБ

В этой теме нет новых непрочитанных сообщений. Власть страха / The Bone Collector (1999) WEB-DL 1080p | D, P, P2, A | Open Matte

65 | 18

16.09 ГБ




Вы не можете начинать темы
Вы не можете отвечать на сообщения
Вы не можете редактировать свои сообщения
Вы не можете удалять свои сообщения
Вы не можете добавлять вложения

Перейти:  
 Вход
ppkBB3cker v.2 © 2008-2014 @ PPK
[ Time : 0.281s | 16 Queries | GZIP : Off ]

cron