img image001 image001 image001 image001 image001 image001 image001 image001 image001 image001 image001 image001 image001 image001 image001 image001

Planets Sun Sun Sun
Статистика раздачи
Автор: Снежана | Размер: 1.45 ГБ | Добавлен: 13 сен 2018
Раздают: 8    Качают: 0
Скачать торрент
Скачать торрент
Описание торрента

СообщениеДобавлено: 13 сен 2018 

Легенды: Гробница дракона / Legendary: Tomb of the Dragon


Перевод: Профессиональный (многоголосый закадровый), субтитры: отсутствуют
Формат: HDRip-AVC, MKV, H.264, AC3
Страна: Великобритания, Китай
Режиссер: Эрик Стайлз
Жанр: фантастика, боевик, приключения
Продолжительность: 01:32:30
Год выпуска: 2013
В ролях: Скотт Эдкинс, Дольф Лундгрен, И Хуан, Нэйтан Ли, Джеймс Лэнс, Лидия Леонард, Гэн Лэ, Мюррей Клайв Уокер, Виктор Собчак, Том Остин

Описание: Команда исследователей путешествует по Китаю в поисках следов доисторических животных. Случайно они находят место, где огромных размеров монстры не просто хорошо сохранились, но и живут и охотятся как ни в чем не бывало. Радость от знакомства с находками портит охотник по имени Харкер, открывший стрельбу в самый неподходящий момент. Теперь людям предстоит противостоять разбушевавшимся монстрам и спасаться бегством.



Видео: 1024x432 (2.40:1), 23.976 fps, AVC MPEG4 (x264), , ~2014 kbps avg, 0.190 bit/pixel
Аудио: 48 kHz, AC3 Dolby Digital, 2/0 (L,R) ch, ~192 kbps

General
Unique ID : 253743640514517104077370531042610191502 (0xBEE53F5F34A98231242D7D16E41D1C8E)
Complete name : C:\Users\Юрик\Desktop\Legendy.Grobnica.drakona.2013.P.HDRip(AVC)_[tfile.ru].mkv
Format : Matroska
Format version : Version 2
File size : 1.45 GiB
Duration : 1h 32mn
Overall bit rate : 2 251 Kbps
Writing application : Lavf55.12.100
Writing library : Lavf55.12.100 / Lavf55.12.100

Video
ID : 2
Format : AVC
Format/Info : Advanced Video Codec
Format profile :
Format settings, CABAC : Yes
Format settings, ReFrames : 2 frames
Format settings, GOP : M=1, N=12
Codec ID : V_MPEG4/ISO/AVC
Duration : 1h 32mn
Bit rate : 2 014 Kbps
Width : 1 024 pixels
Height : 432 pixels
Display aspect ratio : 2.40:1
Frame rate mode : Constant
Frame rate : 23.976 (24000/1001) fps
Color space : YUV
Chroma subsampling : 4:2:0
Bit depth : 8 bits
Scan type : Progressive
Bits/(Pixel*Frame) : 0.190
Stream size : 1.30 GiB (89%)
Default : Yes
Forced : No

Audio
ID : 1
Format : AC-3
Format/Info : Audio Coding 3
Mode extension : CM (complete main)
Format settings, Endianness : Big
Codec ID : A_AC3
Duration : 1h 32mn
Bit rate mode : Constant
Bit rate : 192 Kbps
Channel(s) : 2 channels
Channel positions : Front: L R
Sampling rate : 48.0 KHz
Frame rate : 31.250 fps (1536 spf)
Bit depth : 32 bits
Compression mode : Lossy
Stream size : 127 MiB (9%)
Default : Yes
Forced : No

















   Похожие торренты   Торрент   Размер 
В этой теме нет новых непрочитанных сообщений. Легенды: Гробница дракона / Legendary: Tomb of the Dragon (2013) HDRip | L

691 | 266

746.42 МБ

В этой теме нет новых непрочитанных сообщений. Легенды: Гробница дракона / Legendary: Tomb of the Dragon (2013) HDRip | P

1456 | 122

1.37 ГБ

В этой теме нет новых непрочитанных сообщений. Легенды: Гробница дракона / Legendary: Tomb of the Dragon (2013) HDRip | L1

695 | 157

1.46 ГБ

В этой теме нет новых непрочитанных сообщений. Легенды: Гробница дракона / Legendary: Tomb of the Dragon (2013) BDRip 1080p | L1

430 | 231

8.91 ГБ

В этой теме нет новых непрочитанных сообщений. Легенды: Гробница дракона / Legendary: Tomb of the Dragon (2013) BDRip 720p от HYPERHD | L1

132 | 97

6.17 ГБ

В этой теме нет новых непрочитанных сообщений. Легенды: Гробница дракона / Legendary: Tomb of the Dragon (2013) BDRemux 1080p от NovaLan | 3D-Video

33 | 8

19.79 ГБ

В этой теме нет новых непрочитанных сообщений. Игра Эндера / Ender's Game (Гэвин Худ) [2013, фантастика, боевик, приключения, HDRip] DUB / Фантастика

63 | 5

1.45 ГБ




Вы не можете начинать темы
Вы не можете отвечать на сообщения
Вы не можете редактировать свои сообщения
Вы не можете удалять свои сообщения
Вы не можете добавлять вложения

Перейти:  
 Вход
ppkBB3cker v.2 © 2008-2014 @ PPK
[ Time : 0.026s | 16 Queries | GZIP : Off ]

cron