img image001 image001 image001 image001 image001 image001 image001 image001 image001 image001 image001 image001 image001 image001 image001 image001

Planets Sun Sun Sun
Статистика раздачи
Автор: Снежана | Размер: 2.24 ГБ | Добавлен: 13 сен 2018
Раздают: 8    Качают: 0
Скачать торрент
Скачать торрент
Описание торрента

СообщениеДобавлено: 13 сен 2018 

Для Андромеды / Проект Андромеда / A For Andromeda


Перевод: Любительский (двухголосый закадровый) [den904 & DeadSno]
Субтитры: русские [внешние]
Формат: WEBDLRip-AVC, MKV, H.264, AC3
Страна: Великобритания
Режиссер: Джон Стриклэнд
Жанр: фантастика, триллер, драма
Продолжительность: 01:25:30
Год выпуска: 2006
В ролях: Том Харди, Чарли Кокс, Келли Райлли, Джейн Эшер, Дэвид Хэйг, Колин Стинтон, Роберт Гилл

Описание: В Йоркширских долинах группа ученых получает радио-сигналы из галактики Андромеда. После того, как его расшифровывают, они дают им компьютерную программу, которая может проектировать человеческого клона. Один физик решает, что это — троянский конь и решает разрушить компьютер.


Видео: 1280x720 (16:9), 23.976 fps, AVC MPEG-4 (H.264), ~3005 kbps, 0.136 bit/pixel
Аудио #1: Русский: 48 kHz, AC3 Dolby Digital, 2/0 (L,R) ch, ~384 kbps [Любительский (двухголосый закадровый)]
Аудио #2: Английский: 48 kHz, AC3 Dolby Digital, 2/0 (L,R) ch, ~384 kbps [Оригинал]
Дополнительно: Сохранены оригинальные главы (чаптеры)



Общее
Уникальный идентификатор : 320331505262198881882668736852609274921 (0xF0FD9A93642314418312ECAFE5251429)
Полное имя : F:\Диск\01. ФИЛЬМЫ\Для Андромеды Проект Андромеда A For Andromeda (2006)\A for Andromeda [BBC] 2006 WEB-DLRip 720p.mkv
Формат : Matroska
Версия формата : Version 4 / Version 2
Размер файла : 2,24 Гбайт
Продолжительность : 1 ч. 25 м.
Общий поток : 3751 Кбит/сек
Программа кодирования : XviD4PSP 7.0.456 DAILY
Библиотека кодирования : Lavf57.71.100
Примечание : Rip by Basma4i&TorrNADO
ErrorDetectionType : Per level 1
Attachments : VTS_01_1_001.mkv.encoding.log / poster.jpg
ENCODING_INFO : MATROSKA,WEBM > MKV Пользовательский / H264 > X264 ABR 3005kbps HQ / AC3 > AC3 CBR 384kbps / AC3 > AC3 CBR 384kbps
Язык : und

Видео
Идентификатор : 1
Формат : AVC
Формат/Информация : Advanced Video Codec
Профиль формата :
Настройки формата : CABAC / 8 Ref Frames
Параметр CABAC формата : Да
Параметр RefFrames формата : 8 кадров
Идентификатор кодека : V_MPEG4/ISO/AVC
Продолжительность : 1 ч. 25 м.
Битрейт : 3005 Кбит/сек
Ширина : 1280 пикселей
Высота : 720 пикселей
Соотношение сторон : 16:9
Режим частоты кадров : Постоянный
Частота кадров : 23,976 (24000/1001) кадра/сек
Цветовое пространство : YUV
Субдискретизация насыщенности : 4:2:0
Битовая глубина : 8 бит
Тип развёртки : Прогрессивная
Бит/(Пиксели*Кадры) : 0.136
Размер потока : 1,74 Гбайт (78%)
Библиотека кодирования : x264 core 155 r2901M 7d0ff22
Настройки программы : cabac=1 / ref=9 / deblock=1:-3:-3 / analyse=0x3:0x133 / me=umh / subme=10 / psy=1 / psy_rd=1.00:0.20 / mixed_ref=1 / me_range=32 / chroma_me=1 / trellis=2 / 8x8dct=1 / cqm=0 / deadzone=21,11 / fast_pskip=1 / chroma_qp_offset=-3 / threads=11 / lookahead_threads=1 / sliced_threads=0 / nr=0 / decimate=1 / interlaced=0 / bluray_compat=0 / constrained_intra=0 / bframes=10 / b_pyramid=1 / b_adapt=1 / b_bias=10 / direct=1 / weightb=1 / open_gop=0 / weightp=1 / keyint=240 / keyint_min=24 / scenecut=40 / intra_refresh=0 / rc_lookahead=40 / rc=abr / mbtree=1 / bitrate=3005 / ratetol=1.0 / qcomp=0.60 / qpmin=0 / qpmax=69 / qpstep=4 / ip_ratio=1.40 / aq=1:1.00
Default : Да
Forced : Нет
Цветовой диапазон : Limited
Основные цвета : BT.601 PAL
Характеристики трансфера : BT.470 System B, BT.470 System G
Коэффициенты матрицы : BT.470 System B, BT.470 System G

Аудио #1
Идентификатор : 2
Формат : AC-3
Формат/Информация : Audio Coding 3
Идентификатор кодека : A_AC3
Продолжительность : 1 ч. 25 м.
Вид битрейта : Постоянный
Битрейт : 384 Кбит/сек
Каналы : 2 канала
Расположение каналов : Front: L R
Частота : 48,0 КГц
Частота кадров : 31,250 кадров/сек (1536 SPF)
Битовая глубина : 16 бит
Метод сжатия : С потерями
Размер потока : 235 Мбайт (10%)
Заголовок : (Den904 & DeadSno) по субтитрам от Severnyj
Язык : Russian
ServiceKind/String : Complete Main
Default : Да
Forced : Нет

Аудио #2
Идентификатор : 3
Формат : AC-3
Формат/Информация : Audio Coding 3
Идентификатор кодека : A_AC3
Продолжительность : 1 ч. 25 м.
Вид битрейта : Постоянный
Битрейт : 384 Кбит/сек
Каналы : 2 канала
Расположение каналов : Front: L R
Частота : 48,0 КГц
Частота кадров : 31,250 кадров/сек (1536 SPF)
Битовая глубина : 16 бит
Метод сжатия : С потерями
Размер потока : 235 Мбайт (10%)
Заголовок : Original
Язык : English
ServiceKind/String : Complete Main
Default : Нет
Forced : Нет

Текст #1
Идентификатор : 4
Формат : UTF-8
Идентификатор кодека : S_TEXT/UTF8
Идентификатор кодека/Информация : UTF-8 Plain Text
Заголовок : (Severnyj)
Язык : Russian
Default : Да
Forced : Нет

Текст #2
Идентификатор : 5
Формат : UTF-8
Идентификатор кодека : S_TEXT/UTF8
Идентификатор кодека/Информация : UTF-8 Plain Text
Заголовок : (VampirO)
Язык : Russian
Default : Нет
Forced : Нет

Меню
00:09:46.200 : :00:09:46.200
00:16:13.800 : :00:16:13.800
00:24:36.000 : :00:24:36.000
00:36:07.200 : :00:36:07.200
00:50:25.200 : :00:50:25.200
00:58:19.200 : :00:58:19.200
01:05:36.600 : :01:05:36.600








Релиз от:



   Похожие торренты   Торрент   Размер 
В этой теме нет новых непрочитанных сообщений. Муза / Muse (Джон Дж. Барр IV) [2017, фантастика, триллер, ужасы, фэнтези, мелодрама, драма, WEBDLRip] MVO

14 | 0

1.37 ГБ

В этой теме нет новых непрочитанных сообщений. Для Андромеды / A for Andromeda (2006) DVDRip-AVC | L2

424 | 50

1.45 ГБ

В этой теме нет новых непрочитанных сообщений. Строго на запад / Медленный Запад / Slow West (Джон Маклин) [2015, вестерн, драма, триллер, BDRip-AVC] DUB / Фильмы HDRip

2 | 1

2.18 ГБ

В этой теме нет новых непрочитанных сообщений. Тихое место / A Quiet Place (Джон Красински) [2018, триллер, фантастика, драма, ужасы, HDRip] DUB / Мистика

85 | 8

1.4 ГБ

В этой теме нет новых непрочитанных сообщений. Тихое место / A Quiet Place (Джон Красински) [2018, ужасы, фантастика, триллер, драма, HDRip] DUB / Мистика

177 | 12

1.44 ГБ

В этой теме нет новых непрочитанных сообщений. Ведьма / Manyeo (Пак Хун-джон) [2018, фантастика, триллер, боевик, WEBDLRip] MVO

17 | 0

2.05 ГБ

В этой теме нет новых непрочитанных сообщений. Вирус Андромеда / Штамм "Андромеда" / The Andromeda Strain (2008) HDRip

39 | 7

1.47 ГБ




Вы не можете начинать темы
Вы не можете отвечать на сообщения
Вы не можете редактировать свои сообщения
Вы не можете удалять свои сообщения
Вы не можете добавлять вложения

Перейти:  
 Вход
ppkBB3cker v.2 © 2008-2014 @ PPK
[ Time : 0.038s | 16 Queries | GZIP : Off ]

cron