img image001 image001 image001 image001 image001 image001 image001 image001 image001 image001 image001 image001 image001 image001 image001 image001

Planets Sun Sun Sun
Статистика раздачи
Автор: Снежана | Размер: 1.45 ГБ | Добавлен: 13 сен 2018
Раздают: 32    Качают: 7
Скачать торрент
Скачать торрент
Описание торрента

СообщениеДобавлено: 13 сен 2018 

Убийца 2. Против всех / Sicario: Day of the Soldado / Sicario 2: Soldado


Перевод: Любительский (одноголосый) BadBajo, субтитры: отсутствуют
Формат: WEBRip-AVC, MKV, H.264, AC3
Страна: США, Италия
Режиссер: Стефано Соллима
Жанр: боевик, триллер, драма, криминал
Продолжительность: 02:02:23
Год выпуска: 2018
В ролях: Бенисио Дель Торо, Джош Бролин, Изабела Монер, Джеффри Донован, Кэтрин Кинер, Мануэль Рульфо, Мэттью Модайн, Шей Уигэм, Элиас Гарза, Ховард Фергюсон мл.

Описание: Обстановка на американо-мексиканской границе накаляется, когда наркокартели начинают переправлять в США террористов. Чтобы дать им отпор федеральный агент Мэтт Грейвер вынужден вновь объединиться с не самым надежным напарником — Алехандро.



Видео: 1024x432 (2.40:1), 23.976 fps, AVC MPEG4 (x264), , ~1279 kbps avg, 0.121 bit/pixel
Аудио: 48 kHz, AC3 Dolby Digital, 3/2 (L,C,R,l,r) + LFE ch, ~384 kbps

General
Unique ID : 207500749576581346753622472254832897985 (0x9C1B30D25200F4D33690DF43A63DEFC1)
Complete name : C:\Users\Юрик\Downloads\Sicario.Day.of.the.Soldado.2018.WEBRip.x264_[tfile.ru].mkv
Format : Matroska
Format version : Version 2
File size : 1.45 GiB
Duration : 2h 2mn
Overall bit rate : 1 697 Kbps
Writing application : Lavf55.12.100
Writing library : Lavf55.12.100 / Lavf55.12.100

Video
ID : 2
Format : AVC
Format/Info : Advanced Video Codec
Format profile :
Format settings, CABAC : Yes
Format settings, ReFrames : 2 frames
Format settings, GOP : M=1, N=12
Codec ID : V_MPEG4/ISO/AVC
Duration : 2h 2mn
Bit rate : 1 279 Kbps
Width : 1 024 pixels
Height : 432 pixels
Display aspect ratio : 2.40:1
Frame rate mode : Constant
Frame rate : 23.976 (24000/1001) fps
Color space : YUV
Chroma subsampling : 4:2:0
Bit depth : 8 bits
Scan type : Progressive
Bits/(Pixel*Frame) : 0.121
Stream size : 1.09 GiB (75%)
Title : Sicario.Day.of.the.Soldado.2018.1080p.AMZN.WEBRip.DD5.1.x264-FGT
Language : English
Default : Yes
Forced : No
Statistics Tags Issue : mkvmerge v7.4.0 ('Circles') 64bit built on Dec 12 2014 12:19:56 2018-09-12 11:41:39 / Lavf55.12.100
FromStats_BitRate : 4925536
FromStats_Duration : 02:02:23.670000000
FromStats_FrameCount : 176072
FromStats_StreamSize : 4521438942

Audio
ID : 1
Format : AC-3
Format/Info : Audio Coding 3
Mode extension : CM (complete main)
Format settings, Endianness : Big
Codec ID : A_AC3
Duration : 2h 2mn
Bit rate mode : Constant
Bit rate : 384 Kbps
Channel(s) : 6 channels
Channel positions : Front: L C R, Side: L R, LFE
Sampling rate : 48.0 KHz
Frame rate : 31.250 fps (1536 spf)
Bit depth : 32 bits
Compression mode : Lossy
Stream size : 336 MiB (23%)
Default : Yes
Forced : No
Statistics Tags Issue : mkvmerge v7.4.0 ('Circles') 64bit built on Dec 12 2014 12:19:56 2018-09-12 11:41:39 / Lavf55.12.100
FromStats_BitRate : 384000
FromStats_Duration : 02:02:23.648000000
FromStats_FrameCount : 229489
FromStats_StreamSize : 352495104



















   Похожие торренты   Торрент   Размер 
В этой теме нет новых непрочитанных сообщений. Убийца 2. Против всех / Sicario: Day of the Soldado / Sicario 2: Soldado (Стефано Соллима) [2018, боевик, триллер, драма, криминал, WEBRip] DUB

313 | 4

1.37 ГБ

В этой теме нет новых непрочитанных сообщений. Убийца 2. Против всех / Sicario: Day of the Soldado / Sicario 2: Soldado (Стефано Соллима) [2018, боевик, триллер, драма, криминал, WEBRip] VO

13 | 7

1.46 ГБ

В этой теме нет новых непрочитанных сообщений. Убийца 2. Против всех / Sicario: Day of the Soldado / Sicario 2: Soldado (Стефано Соллима) [2018, боевик, триллер, драма, криминал, WEBRip] MVO

36 | 4

2.05 ГБ

В этой теме нет новых непрочитанных сообщений. Убийца 2. Против всех / Sicario: Day of the Soldado / Sicario 2: Soldado (Стефано Соллима) [2018, боевик, триллер, драма, криминал, WEBRip] MVO

77 | 8

1.37 ГБ

В этой теме нет новых непрочитанных сообщений. Убийца 2. Против всех / Sicario: Day of the Soldado / Sicario 2: Soldado (Стефано Соллима) [2018, боевик, триллер, драма, криминал, WEBRip] DUB

29 | 0

2.05 ГБ

В этой теме нет новых непрочитанных сообщений. Убийца 2. Против всех / Sicario: Day of the Soldado / Sicario 2: Soldado (Стефано Соллима) [2018, боевик, триллер, драма, криминал, BDRip] MVO

29 | 1

1.46 ГБ

В этой теме нет новых непрочитанных сообщений. Убийца 2. Против всех / Sicario: Day of the Soldado / Sicario 2: Soldado (Стефано Соллима) [2018, боевик, триллер, драма, криминал, WEB-DLRip] AVO

15 | 3

748.75 МБ




Вы не можете начинать темы
Вы не можете отвечать на сообщения
Вы не можете редактировать свои сообщения
Вы не можете удалять свои сообщения
Вы не можете добавлять вложения

Перейти:  
 Вход
ppkBB3cker v.2 © 2008-2014 @ PPK
[ Time : 0.026s | 16 Queries | GZIP : Off ]

cron