img image001 image001 image001 image001 image001 image001 image001 image001 image001 image001 image001 image001 image001 image001 image001 image001

Planets Sun Sun Sun
Статистика раздачи
Автор: Снежана | Размер: 676.5 МБ | Добавлен: 13 сен 2018
Раздают: 3    Качают: 3
Скачать торрент
Скачать торрент
Описание торрента

СообщениеДобавлено: 13 сен 2018 

Монстр, рожденный людьми / Человек создал Монстра / Man Made Monster


Перевод: Любительский (одноголосый) [Трамвай фильм], субтитры: отсутствуют
Формат: DVDRip, AVI, DivX, MP3
Страна: США
Режиссер: Джордж Вагнер
Жанр: фантастика, ужасы. драма
Продолжительность: 00:59:46
Год выпуска: 1941
В ролях: Лайнел Этвилл, Лон чейни, Энн Нейджел,Фрэнк Альберстоун, Самуэль Хиндс
Описание: Дэн Маккормик - неудачник, выступающий на сельских ярмарках, демонстрируя свою сверхспособность: иммунитет к электричеству. Трагическая случайность делает его известным и его способностями заинтересовался видный ученый Джон Лоуренс, который начинает работать с Дэном, с целью выявления причины иммунитета к электричеству. Однако ассистент доктора, Ригес, строит свои чудовищные планы на доверчивого подопытного...
Доп. информация: Классика ужасов от Universal


Видео: 512x384 (1.33:1), 29.970 fps, DivX Codec 5.x or 6.x ~1409 kbps avg, 0.24 bit/pixel
Аудио: 44.100 kHz, MPEG Layer 3, 2 ch, ~160.00 kbps avg

Complete name : Man.Made.Monster.avi
Format : AVI
Format/Info : Audio Video Interleave
File size : 676 MiB
Duration : 59 min 46 s
Overall bit rate : 1 582 kb/s
Movie name : Man.Made.Monstr

Video
ID : 0
Format : MPEG-4 Visual
Format profile : Simple@L1
Format settings, BVOP : No
Format settings, QPel : No
Format settings, GMC : No warppoints
Format settings, Matrix : Default (H.263)
Codec ID : DX50
Codec ID/Hint : DivX 5
Duration : 59 min 45 s
Bit rate : 1 409 kb/s
Width : 512 pixels
Height : 384 pixels
Display aspect ratio : 4:3
Frame rate : 29.970 (30000/1001) FPS
Color space : YUV
Chroma subsampling : 4:2:0
Bit depth : 8 bits
Scan type : Progressive
Compression mode : Lossy
Bits/(Pixel*Frame) : 0.239
Stream size : 602 MiB (89%)

Audio
ID : 1
Format : MPEG Audio
Format version : Version 1
Format profile : Layer 3
Format settings : Joint stereo / MS Stereo
Codec ID : 55
Codec ID/Hint : MP3
Duration : 59 min 46 s
Bit rate mode : Constant
Bit rate : 160 kb/s
Channel(s) : 2 channels
Sampling rate : 44.1 kHz
Compression mode : Lossy
Stream size : 68.4 MiB (10%)
Alignment : Aligned on interleaves
Interleave, duration : 26 ms (0.78 video frame)
Writing library : LAME3.98.2









   Похожие торренты   Торрент   Размер 
В этой теме нет новых непрочитанных сообщений. Безудержный монстр / Monster A-Go Go (Билл Рибэйн, Гершел Гордон Льюис) [1965, ужасы, фантастика, DVDRip-AVC] VO

0 | 0

1.46 ГБ

В этой теме нет новых непрочитанных сообщений. Глубинный монстр Ёнгари / Монстр Ёнгари / Taekoesu Yongary / Yongary, Monster Monster from the Deep (Ким Ги-док) [1967, Фантастика, Приключения, DVDRip-AVC] DUB (eng)+VO

0 | 0

351.56 МБ

В этой теме нет новых непрочитанных сообщений. Шлок / Банановый монстр / Schlock / The Banana Monster (Джон Лэндис) [1973, Фантастика, трэш, чёрная комедия, DVDRip] VO / Фантастика

13 | 2

791.83 МБ

В этой теме нет новых непрочитанных сообщений. Человек и монстр / El hombre y el monstruo / The Man and the Monster (1952) DVDRip | L1

9 | 4

881.05 МБ

В этой теме нет новых непрочитанных сообщений. Монстр в университетском городке / Монстр в кампусе / Monster On The Campus (1958) DVDRip

11 | 2

866.41 МБ

В этой теме нет новых непрочитанных сообщений. Невероятно огромный человек / The Amazing Colossal Man (Берт Ай Гордон) [1957, Фантастика, драма, DVDRip-AVC] VO / Фантастика

0 | 0

1.45 ГБ

В этой теме нет новых непрочитанных сообщений. Рассвет мертвецов / Dawn of the Dead (Джордж А. Ромеро) [1978, ужасы, фантастика, LowHDRip] MVO

0 | 0

760.05 МБ




Вы не можете начинать темы
Вы не можете отвечать на сообщения
Вы не можете редактировать свои сообщения
Вы не можете удалять свои сообщения
Вы не можете добавлять вложения

Перейти:  
 Вход
ppkBB3cker v.2 © 2008-2014 @ PPK
[ Time : 0.022s | 15 Queries | GZIP : Off ]

cron