img image001 image001 image001 image001 image001 image001 image001 image001 image001 image001 image001 image001 image001 image001 image001 image001

Planets Sun Sun Sun
Статистика раздачи
Автор: Снежана | Размер: 746.12 МБ | Добавлен: 13 сен 2018
Раздают: 8    Качают: 0
Скачать торрент
Скачать торрент
Описание торрента

СообщениеДобавлено: 13 сен 2018 

Жизненная сила / Lifeforce

Перевод: Профессиональный (многоголосый, закадровый) 5-й канал Media, субтитры: отсутствуют
Формат: LowHDRip-AVC, MKV, H.264, AAC
Страна: Великобритания, США
Режиссер: Тоуб Хупер
Жанр: ужасы, фантастика, триллер
Продолжительность: 01:56:13
Год выпуска: 1985

В ролях: Стив Рейлсбэк, Питер Фёрт, Фрэнк Финлей, Матильда Мэй, Патрик Стюарт, Майкл Гозард, Николас Болл, Обри Моррис, Нэнси Пол, Джон Хэллам

Описание: Космическая экспедиция исследует комету Галлея и натыкается на новую форму разумной жизни — нечто вроде космических вампиров, вместо крови черпающих энергию из своих жертв. Забрав этих чудовищ в образах очень красивой обнаженной женщины и двух мужчин на борт, космонавты совершили страшную ошибку. Мало того, что все они, кроме Рэйлсбэка погибли, вампиры проникли на Землю, где начали массовую заготовку жизненной силы, забирая ее у людей, превращавшихся в нечто вроде зомби. Все это напоминает конец света.



Видео: 752x320 (2.35:1), 23.976 fps, AVC MPEG-4 (H.264), ~820 kbps, 0.142 bit/pixel
Аудио: 48 kHz, AАС-HE, 2 ch, ~76 kbps

Формат : Matroska
Версия формата : Version 4 / Version 2
Размер файла : 746 Мбайт
Продолжительность : 1 ч. 56 м.
Общий поток : 897 Кбит/сек
Дата кодирования : UTC 2018-06-20 13:29:31
Программа кодирования : mkvmerge v15.0.0 ('Duel with the Devil') 64-bit
Библиотека кодирования : libebml v1.3.5 + libmatroska v1.4.5

Видео
Идентификатор : 1
Формат : AVC
Формат/Информация : Advanced Video Codec
Профиль формата :
Параметр CABAC формата : Да
Параметр RefFrames формата : 10 кадров
Идентификатор кодека : V_MPEG4/ISO/AVC
Продолжительность : 1 ч. 56 м.
Битрейт : 820 Кбит/сек
Ширина : 752 пикселя
Высота : 320 пикселей
Соотношение сторон : 2,35:1
Режим частоты кадров : Постоянный
Частота кадров : 23,976 (24000/1001) кадра/сек
Цветовое пространство : YUV
Субдискретизация насыщенности : 4:2:0
Битовая глубина : 8 бит
Тип развёртки : Прогрессивная
Бит/(Пиксели*Кадры) : 0.142
Размер потока : 681 Мбайт (91%)
Библиотека кодирования : x264 core 152 r2851kMod ba24899
Настройки программы : cabac=1 / ref=10 / deblock=1:-3:-2 / analyse=0x3:0x133 / me=umh / subme=11 / psy=1 / fade_compensate=0.00 / psy_rd=1.00:0.15 / mixed_ref=1 / me_range=32 / chroma_me=1 / trellis=2 / 8x8dct=1 / cqm=0 / deadzone=21,11 / fast_pskip=0 / chroma_qp_offset=-3 / threads=6 / lookahead_threads=1 / sliced_threads=0 / nr=0 / decimate=0 / interlaced=0 / bluray_compat=0 / constrained_intra=0 / bframes=10 / b_pyramid=2 / b_adapt=2 / b_bias=0 / direct=3 / weightb=1 / open_gop=0 / weightp=2 / keyint=240 / keyint_min=23 / scenecut=40 / intra_refresh=0 / rc_lookahead=40 / rc=2pass / mbtree=1 / bitrate=820 / ratetol=1.0 / qcomp=0.60 / qpmin=0 / qpmax=69 / qpstep=4 / cplxblur=20.0 / qblur=0.5 / vbv_maxrate=50000 / vbv_bufsize=62500 / nal_hrd=none / filler=0 / ip_ratio=1.40 / aq=3:1.00
Default : Да
Forced : Нет

Аудио
Идентификатор : 2
Формат : AAC
Формат/Информация : Advanced Audio Codec
Профиль формата : HE-AAC / LC
Идентификатор кодека : A_AAC
Продолжительность : 1 ч. 56 м.
Битрейт : 76,0 Кбит/сек
Каналы : 2 канала
Расположение каналов : Front: L R
Частота : 48,0 КГц / 24,0 КГц
Частота кадров : 23,438 кадра/сек (1024 SPF)
Метод сжатия : С потерями
Задержка видео : 31 мс.
Размер потока : 63,2 Мбайт (8%)
Язык : Russian
Default : Да
Forced : Нет

Меню
00:00:00.000 : :Chapter 01
00:10:17.617 : :Chapter 02
00:22:15.534 : :Chapter 03
00:27:19.704 : :Chapter 04
00:36:09.500 : :Chapter 05
00:43:11.722 : :Chapter 06
00:59:26.629 : :Chapter 07
01:07:26.642 : :Chapter 08
01:13:11.453 : :Chapter 09
01:21:29.484 : :Chapter 10
01:28:28.970 : :Chapter 11
01:37:08.556 : :Chapter 12












   Похожие торренты   Торрент   Размер 
В этой теме нет новых непрочитанных сообщений. Жизненная сила / Lifeforce (Тоуб Хупер) [1985, ужасы, фантастика, триллер, BDRip] DVO+MVO

1 | 0

1.61 ГБ

В этой теме нет новых непрочитанных сообщений. Жизненная сила / Lifeforce (1985) BDRip | P, A

110 | 4

2.91 ГБ

В этой теме нет новых непрочитанных сообщений. Жизненная сила / Lifeforce (1985) BDRip 720p | A, P, P2

68 | 6

3.68 ГБ

В этой теме нет новых непрочитанных сообщений. Жизненная сила / Lifeforce (1985) HDRip | Сербин

68 | 5

1.46 ГБ

В этой теме нет новых непрочитанных сообщений. Живое / Life (Даниэль Эспиноса) [2017, ужасы, фантастика, триллер, LowHDRip] DUB / Фантастика

8 | 8

741.09 МБ

В этой теме нет новых непрочитанных сообщений. Живое / Life (Даниэль Эспиноса) [2017, ужасы, фантастика, триллер, LowHDRip] DUB

40 | 4

745.64 МБ

В этой теме нет новых непрочитанных сообщений. Знаки / Signs (М. Найт Шьямалан) [2002, фантастика, триллер, драма, LowHDRip] DUB / Фантастика

4 | 0

737.8 МБ




Вы не можете начинать темы
Вы не можете отвечать на сообщения
Вы не можете редактировать свои сообщения
Вы не можете удалять свои сообщения
Вы не можете добавлять вложения

Перейти:  
 Вход
ppkBB3cker v.2 © 2008-2014 @ PPK
[ Time : 2.498s | 17 Queries | GZIP : Off ]

cron