img image001 image001 image001 image001 image001 image001 image001 image001 image001 image001 image001 image001 image001 image001 image001 image001

Planets Sun Sun Sun
Статистика раздачи
Автор: Снежана | Размер: 2.15 ГБ | Добавлен: 13 сен 2018
Раздают: 4    Качают: 0
Скачать торрент
Скачать торрент
Описание торрента

СообщениеДобавлено: 13 сен 2018 

Спуск / The Descent


Перевод: Профессиональный (многоголосый закадровый) [ТК Россия], субтитры: русские, английские
Формат: BDRip-AVC, MKV, H.264, AC3
Страна: Великобритания
Режиссер: Нил Маршалл
Жанр: ужасы, триллер, приключения
Продолжительность: 01:39:24
Год выпуска: 2005

В ролях: Шона МакДональд, Натали Джексон Мендоза, Алекс Рид, Саския Мюлдер, МайАнна Бёринг, Нора-Джейн Нун, Оливер Милберн, Молли Кейлл, Крэйг Конуэй

Описание:
Компания смелых очаровательных девушек привыкла проводить свой отпуск в экстремальных путешествиях. На этот раз принято решение исследовать отдаленные горные хребты. Все идет неплохо до тех пор, пока они не находят загадочный грот. Какие тайны он хранит? Женское любопытство одерживает верх над осторожностью, и вот подруги уже глубоко под землёй.
Внезапный камнепад замуровывает выход наверх, и герои вынуждены отправиться вглубь бесконечных тёмных катакомб в поисках спасения. Вскоре они выясняют, что мрак, холод, голод, отчаянье и страх — не единственные их попутчики в этом подземном путешествии. Грот оказывается населённым неизвестными кошмарными созданиями, которые не прочь познакомиться поближе… Долгожданный отпуск оборачивается леденящим душу ужасом, а загадочная пещера — склепом. Темнота и тишина…только слышно, как быстро бьётся твоё собственное сердце, охваченное первобытным страхом…




Видео: 1024х432 (2,40:1), 24 fps, AVC MPEG4 (x264), , ~ 2717 kbps avg, 0.256 bit/pixel
Аудио #1: Русский: 48 kHz, AC3 Dolby Digital, 2/0 (L,R) ch, ~192 kbps avg [Профессиональный (многоголосый, закадровый)] [ТК Россия];
Аудио #2: Английский: 48 kHz, AC3 Dolby Digital, 2/0 (L,R) ch, ~192 kbps avg [Original]

Доп. информация: За рип спасибо mister55555.

General
Unique ID : 176536366170215645145724994647792695549 (0x84CFAAD9F18491D3BA9D62F1FD8238FD)
Complete name : C:\Users\User\Desktop\Спуск.2005.BDRip-AVC.MVO.[tfile.ru].mkv
Format : Matroska
Format version : Version 2
File size : 2.15 GiB
Duration : 1h 39mn
Overall bit rate : 3 102 Kbps
Movie name : Спуск / The Descent / 2005
Encoded date : UTC 2016-05-02 14:14:41
Writing application : mkvmerge v8.3.0 ('Over the Horizon') 32bit
Writing library : libebml v1.3.1 + libmatroska v1.4.2

Video
ID : 1
Format : AVC
Format/Info : Advanced Video Codec
Format profile :
Format settings, CABAC : Yes
Format settings, ReFrames : 8 frames
Codec ID : V_MPEG4/ISO/AVC
Duration : 1h 39mn
Bit rate : 2 717 Kbps
Width : 1 024 pixels
Height : 432 pixels
Display aspect ratio : 2.40:1
Frame rate mode : Constant
Frame rate : 24.000 fps
Color space : YUV
Chroma subsampling : 4:2:0
Bit depth : 8 bits
Scan type : Progressive
Bits/(Pixel*Frame) : 0.256
Stream size : 1.84 GiB (86%)
Title : Спуск / The Descent / 2005
Writing library : x264 core 125 r2200 999b753
Encoding settings : cabac=1 / ref=8 / deblock=1:-3:-3 / analyse=0x3:0x113 / me=umh / subme=9 / psy=1 / psy_rd=1.00:0.00 / mixed_ref=1 / me_range=32 / chroma_me=1 / trellis=2 / 8x8dct=1 / cqm=0 / deadzone=21,11 / fast_pskip=0 / chroma_qp_offset=-2 / threads=6 / lookahead_threads=1 / sliced_threads=0 / nr=0 / decimate=0 / interlaced=0 / bluray_compat=0 / constrained_intra=0 / bframes=8 / b_pyramid=2 / b_adapt=2 / b_bias=0 / direct=3 / weightb=1 / open_gop=0 / weightp=2 / keyint=240 / keyint_min=23 / scenecut=40 / intra_refresh=0 / rc=2pass / mbtree=0 / bitrate=2717 / ratetol=1.0 / qcomp=0.60 / qpmin=0 / qpmax=69 / qpstep=4 / cplxblur=20.0 / qblur=0.5 / ip_ratio=1.40 / pb_ratio=1.30 / aq=1:1.10
Language : English
Default : Yes
Forced : No

Audio #1
ID : 2
Format : AC-3
Format/Info : Audio Coding 3
Mode extension : CM (complete main)
Format settings, Endianness : Big
Codec ID : A_AC3
Duration : 1h 39mn
Bit rate mode : Constant
Bit rate : 192 Kbps
Channel(s) : 2 channels
Channel positions : Front: L R
Sampling rate : 48.0 KHz
Frame rate : 31.250 fps (1536 spf)
Compression mode : Lossy
Stream size : 137 MiB (6%)
Title : многоголосый телеканал Россия
Language : Russian
Default : Yes
Forced : No

Audio #2
ID : 3
Format : AC-3
Format/Info : Audio Coding 3
Mode extension : CM (complete main)
Format settings, Endianness : Big
Codec ID : A_AC3
Duration : 1h 39mn
Bit rate mode : Constant
Bit rate : 192 Kbps
Channel(s) : 2 channels
Channel positions : Front: L R
Sampling rate : 48.0 KHz
Frame rate : 31.250 fps (1536 spf)
Compression mode : Lossy
Stream size : 137 MiB (6%)
Title : оригинал
Language : English
Default : No
Forced : No

Text #1
ID : 4
Format : UTF-8
Codec ID : S_TEXT/UTF8
Codec ID/Info : UTF-8 Plain Text
Title : русские
Language : Russian
Default : No
Forced : No

Text #2
ID : 5
Format : UTF-8
Codec ID : S_TEXT/UTF8
Codec ID/Info : UTF-8 Plain Text
Title : английские
Language : English
Default : No
Forced : No













   Похожие торренты   Торрент   Размер 
В этой теме нет новых непрочитанных сообщений. Спуск / The Descent (Нил Маршалл) [2005, ужасы, драма, BDRip] DUB+MVO / Мистика

6 | 0

2.19 ГБ

В этой теме нет новых непрочитанных сообщений. Спуск 2 / The Descent: Part 2 (Джон Харрис) [2009, ужасы, триллер, приключения, BDRip] DUB+MVO / Мистика

11 | 0

2.19 ГБ

В этой теме нет новых непрочитанных сообщений. Спуск / The Descent (2005) BDRip-AVC by msltel

255 | 31

2.84 ГБ

В этой теме нет новых непрочитанных сообщений. Спуск / The Descent (2005) BDRip-AVC | AUS Transfer | D, P

187 | 35

2.92 ГБ

В этой теме нет новых непрочитанных сообщений. Спуск / The Descent (2005) BDRip 1080p by msltel

52 | 44

10.54 ГБ

В этой теме нет новых непрочитанных сообщений. Спуск / The Descent (2005) BDRip 720p от KinoGadget | iPad | D

18 | 4

2.15 ГБ

В этой теме нет новых непрочитанных сообщений. Пещера / The Cave (Брюс Хант) [2005, Фантастика, приключения, ужасы, BDRip-AVC] MVO / Мистика

15 | 0

1.46 ГБ




Вы не можете начинать темы
Вы не можете отвечать на сообщения
Вы не можете редактировать свои сообщения
Вы не можете удалять свои сообщения
Вы не можете добавлять вложения

Перейти:  
 Вход
ppkBB3cker v.2 © 2008-2014 @ PPK
[ Time : 0.024s | 16 Queries | GZIP : Off ]

cron