img image001 image001 image001 image001 image001 image001 image001 image001 image001 image001 image001 image001 image001 image001 image001 image001

Planets Sun Sun Sun
Статистика раздачи
Автор: Снежана | Размер: 2.18 ГБ | Добавлен: 13 сен 2018
Раздают: 6    Качают: 0
Скачать торрент
Скачать торрент
Описание торрента

СообщениеДобавлено: 13 сен 2018 

Пророк / Next


Перевод: Профессиональный (полное дублирование) + Профессиональный (двухголосый закадровый), субтитры: отсутствуют
Формат: HDRip-AVC, MKV, H.264, AC3
Страна: США
Режиссер: Ли Тамахори
Жанр: фантастика, боевик, триллер
Продолжительность: 01:36:10
Год выпуска: 2007
В ролях: Николас Кейдж, Джулианна Мур, Николас Пэйджон, Пол Рэй, Джессика Бил, Томас Кретшманн, Джим Бивер, Энцо Чиленти, Дэнни Дауни, Питер Фальк, Джон Хьюз, Тори Киттлз, Адам Либерман, Майкл Тракко, Хосе Зунига

Описание: У Криса Джонсона есть секрет, который не дает ему спокойно жить — он может на несколько минут заглядывать в свое собственное будущее. Еще в детстве устав от бесконечных исследований, Крис живет в Лас-Вегасе под вымышленным именем и зарабатывает на жизнь фокусами и азартными играми. Но когда террористическая группировка угрожает взорвать ядерную бомбу в Лос-Анджелесе, правительственный агент Кэлли Феррис всеми силами пытается найти и схватить Криса, чтобы убедить его помочь властям предотвратить катастрофу.



Видео: 1024x432 (2.40:1), 23.976 fps, AVC MPEG4 (x264), , ~1904 kbps avg, 0.179 bit/pixel
Аудио #1: Русский:48 kHz, AC3 Dolby Digital, 3/2 (L,C,R,l,r) + LFE ch, ~448 kbps [Профессиональный (полное дублирование)]
Аудио #2: Русский:48 kHz, AC3 Dolby Digital, 3/2 (L,C,R,l,r) + LFE ch, ~448 kbps [Профессиональный (двухголосый)] - Гланц и Королева
Аудио #3: Английский:48 kHz, AC3 Dolby Digital, 3/2 (L,C,R,l,r) + LFE ch, ~448 kbps [Оригинал]
General
Unique ID : 191628875472082990925441118550930147325 (0x902A6102BE0578028F139ADCF91AC7FD)
Complete name : C:\Users\Юрик\Desktop\Next.2007_[tfile.ru].mkv
Format : Matroska
Format version : Version 4 / Version 2
File size : 2.18 GiB
Duration : 1h 36mn
Overall bit rate : 3 248 Kbps
Encoded date : UTC 2018-09-13 07:24:43
Writing application : mkvmerge v7.4.0 ('Circles') 64bit built on Dec 12 2014 12:19:56
Writing library : libebml v1.3.0 + libmatroska v1.4.1

Video
ID : 1
Format : AVC
Format/Info : Advanced Video Codec
Format profile :
Format settings, CABAC : Yes
Format settings, ReFrames : 2 frames
Format settings, GOP : N=1
Codec ID : V_MPEG4/ISO/AVC
Duration : 1h 36mn
Bit rate : 1 904 Kbps
Width : 1 024 pixels
Height : 432 pixels
Display aspect ratio : 2.40:1
Frame rate mode : Constant
Frame rate : 23.976 (24000/1001) fps
Color space : YUV
Chroma subsampling : 4:2:0
Bit depth : 8 bits
Scan type : Progressive
Bits/(Pixel*Frame) : 0.179
Stream size : 1.28 GiB (59%)
Title : 1280x530 @ 4998 Kbps
Language : English
Default : Yes
Forced : No

Audio #1
ID : 2
Format : AC-3
Format/Info : Audio Coding 3
Mode extension : CM (complete main)
Format settings, Endianness : Big
Codec ID : A_AC3
Duration : 1h 36mn
Bit rate mode : Constant
Bit rate : 448 Kbps
Channel(s) : 6 channels
Channel positions : Front: L C R, Side: L R, LFE
Sampling rate : 48.0 KHz
Frame rate : 31.250 fps (1536 spf)
Compression mode : Lossy
Stream size : 309 MiB (14%)
Default : Yes
Forced : No

Audio #2
ID : 3
Format : AC-3
Format/Info : Audio Coding 3
Mode extension : CM (complete main)
Format settings, Endianness : Big
Codec ID : A_AC3
Duration : 1h 35mn
Bit rate mode : Constant
Bit rate : 448 Kbps
Channel(s) : 6 channels
Channel positions : Front: L C R, Side: L R, LFE
Sampling rate : 48.0 KHz
Frame rate : 31.250 fps (1536 spf)
Compression mode : Lossy
Delay relative to video : 23s 0ms
Stream size : 307 MiB (14%)
Default : No
Forced : No

Audio #3
ID : 4
Format : AC-3
Format/Info : Audio Coding 3
Mode extension : CM (complete main)
Format settings, Endianness : Big
Codec ID : A_AC3
Duration : 1h 36mn
Bit rate mode : Constant
Bit rate : 448 Kbps
Channel(s) : 6 channels
Channel positions : Front: L C R, Side: L R, LFE
Sampling rate : 48.0 KHz
Frame rate : 31.250 fps (1536 spf)
Compression mode : Lossy
Stream size : 308 MiB (14%)
Default : No
Forced : No



















   Похожие торренты   Торрент   Размер 
В этой теме нет новых непрочитанных сообщений. Геошторм / Geostorm (Дин Девлин) [2017, фантастика, боевик, триллер, HDRip-AVC] DUB / Фантастика

7 | 0

1.46 ГБ

В этой теме нет новых непрочитанных сообщений. Луна 44 / Moon 44 (Роланд Эммерих) [1990, фантастика, боевик, триллер, HDRip-AVC] MVO / Фантастика

8 | 0

1.46 ГБ

В этой теме нет новых непрочитанных сообщений. Судный день / Doomsday (Нил Маршалл) [2008, фантастика, боевик, триллер, HDRip-AVC] DUB / Фантастика

19 | 0

2.18 ГБ

В этой теме нет новых непрочитанных сообщений. Крепость / Fortress (Стюарт Гордон) [1992, Фантастика, боевик, триллер, HDRip-AVC] MVO / Фантастика

4 | 0

1.46 ГБ

В этой теме нет новых непрочитанных сообщений. Ловкость / Sleight (Джастин Диллард) [2017, фантастика, боевик, триллер, драма, HDRip] MVO / Фантастика

12 | 6

1.36 ГБ

В этой теме нет новых непрочитанных сообщений. Видок / Vidocq (Питоф) [2001, фантастика, боевик, триллер, криминал, детектив, HDRip-AVC] DUB / Фантастика

2 | 0

1.45 ГБ

В этой теме нет новых непрочитанных сообщений. Логан / Logan (Джеймс Мэнголд ) [2017, фантастика, боевик, триллер, драма, HDRip-AVC] DUB / Фантастика

9 | 6

2.19 ГБ




Вы не можете начинать темы
Вы не можете отвечать на сообщения
Вы не можете редактировать свои сообщения
Вы не можете удалять свои сообщения
Вы не можете добавлять вложения

Перейти:  
 Вход
ppkBB3cker v.2 © 2008-2014 @ PPK
[ Time : 0.026s | 18 Queries | GZIP : Off ]

cron