img image001 image001 image001 image001 image001 image001 image001 image001 image001 image001 image001 image001 image001 image001 image001 image001

Planets Sun Sun Sun
Статистика раздачи
Автор: Снежана | Размер: 1.46 ГБ | Добавлен: 14 сен 2018
Раздают: 10    Качают: 0
Скачать торрент
Скачать торрент
Описание торрента

СообщениеДобавлено: 14 сен 2018 

Натуральные упыри / Eat Locals


Перевод: Профессиональный (полное дублирование), субтитры: отсутствуют
Формат: HDRip-AVC, MKV, H.264, AC3
Страна: Великобритания
Режиссер: Джейсон Флеминг
Жанр: ужасы, боевик, комедия
Продолжительность: 01:33:34
Год выпуска: 2016
В ролях: Билли Кук, Чарли Кокс, Макензи Крук, Тони Кёрран, Винсент Риган, Фрима Аджьеман, Ив Майлс, Декстер Флетчер, Ник Моран, Николас Роу

Описание: Раз в 50 лет группа из восьми вампиров собирается на встречу где-то в тихой сельской местности в Британии. На этот раз к ним случайно попадает парень Себастиан, который думал, что идёт на свидание, а вампиры предложили ему стать своим. Но интересную беседу закончить не удаётся, оказывается, что дом окружил специальный отряд по борьбе с вампирами.



Видео: 1024x548 (1.85:1), 23.976 fps, AVC MPEG4 (x264), , ~1801 kbps avg, 0.134 bit/pixel
Аудио: 48 kHz, AC3 Dolby Digital, 3/2 (L,C,R,l,r) + LFE ch, ~384 kbps
General
Unique ID : 54877097948612427272670807489670829152 (0x2948F1D29E49B9DCBC9985CC09A05460)
Complete name : C:\Users\Юрик\Desktop\Натуральные упыри.2017_[tfile.ru].mkv
Format : Matroska
Format version : Version 2
File size : 1.46 GiB
Duration : 1h 33mn
Overall bit rate : 2 229 Kbps
Writing application : Lavf55.12.100
Writing library : Lavf55.12.100 / Lavf55.12.100

Video
ID : 2
Format : AVC
Format/Info : Advanced Video Codec
Format profile :
Format settings, CABAC : Yes
Format settings, ReFrames : 2 frames
Codec ID : V_MPEG4/ISO/AVC
Duration : 1h 33mn
Bit rate : 1 801 Kbps
Width : 1 024 pixels
Height : 548 pixels
Display aspect ratio : 1.85:1
Frame rate mode : Constant
Frame rate : 23.976 (24000/1001) fps
Color space : YUV
Chroma subsampling : 4:2:0
Bit depth : 8 bits
Scan type : Progressive
Bits/(Pixel*Frame) : 0.134
Stream size : 1.18 GiB (81%)
Language : English
Default : Yes
Forced : No

Audio
ID : 1
Format : AC-3
Format/Info : Audio Coding 3
Mode extension : CM (complete main)
Format settings, Endianness : Big
Codec ID : A_AC3
Duration : 1h 33mn
Bit rate mode : Constant
Bit rate : 384 Kbps
Channel(s) : 6 channels
Channel positions : Front: L C R, Side: L R, LFE
Sampling rate : 48.0 KHz
Frame rate : 31.250 fps (1536 spf)
Bit depth : 32 bits
Compression mode : Lossy
Stream size : 257 MiB (17%)
Title : Dub (iTunes)
Language : Russian
Default : Yes
Forced : No



















   Похожие торренты   Торрент   Размер 
В этой теме нет новых непрочитанных сообщений. Натуральные упыри / Eat Locals (2017) HDRip от Kaztorrents | КПК | iTunes

33 | 2

355.94 МБ

В этой теме нет новых непрочитанных сообщений. Натуральные упыри / Eat Locals (2016) BDRip-AVC от HELLYWOOD | iTunes

41 | 4

1.41 ГБ

В этой теме нет новых непрочитанных сообщений. Натуральные упыри / Eat Locals (2016) BDRip 1080p | iTunes

60 | 4

4.36 ГБ

В этой теме нет новых непрочитанных сообщений. Натуральные упыри / Eat Locals (2017) BDRip от MegaPeer | iTunes

1090 | 21

1.4 ГБ

В этой теме нет новых непрочитанных сообщений. Нападение акул на Нью-Джерси / Jersey Shore Shark Attack (Джон Шеппирд ) [2012, ужасы, фантастика, боевик, триллер, комедия, HDRip] MVO / Мистика

9 | 3

1.45 ГБ

В этой теме нет новых непрочитанных сообщений. Конец дня / Daylight's End (Уильям Кауфман ) [2016, ужасы, фантастика, боевик, HDRip] VO / Мистика

4 | 0

1.45 ГБ

В этой теме нет новых непрочитанных сообщений. Ещё одно зло / Another Evil (Карсон Д. Мелл) [2016, ужасы, комедия, HDRip] MVO / Мистика

4 | 0

1.37 ГБ




Вы не можете начинать темы
Вы не можете отвечать на сообщения
Вы не можете редактировать свои сообщения
Вы не можете удалять свои сообщения
Вы не можете добавлять вложения

Перейти:  
 Вход
ppkBB3cker v.2 © 2008-2014 @ PPK
[ Time : 0.036s | 16 Queries | GZIP : Off ]

cron