img image001 image001 image001 image001 image001 image001 image001 image001 image001 image001 image001 image001 image001 image001 image001 image001

Planets Sun Sun Sun
Статистика раздачи
Автор: Снежана | Размер: 1.45 ГБ | Добавлен: 14 сен 2018
Раздают: 15    Качают: 0
Скачать торрент
Скачать торрент
Описание торрента

СообщениеДобавлено: 14 сен 2018 

Хан Соло: Звёздные Войны. Истории / Solo: A Star Wars Story


Перевод: Профессиональный (полное дублирование) iTunes, субтитры: отсутствуют
Формат: HDRip-AVC, MKV, H.264, AC3
Страна: США
Режиссер: Рон Ховард
Жанр: фантастика, фэнтези, боевик, приключения
Продолжительность: 02:14:46
Год выпуска: 2018
В ролях: Олден Эренрайк, Йонас Суотамо, Вуди Харрельсон, Эмилия Кларк, Дональд Гловер, Тэнди Ньютон, Фиби Уоллер-Бридж, Пол Беттани, Джон Фавро, Линда Хант

Описание: Фильм расскажет о похождениях юного космического сорвиголовы Хана Соло и его верного напарника Чубакки и о том, как они стали самыми быстрыми пилотами и самыми хитрыми контрабандистами далёкой Галактики.



Видео: 1024x432 (2.40:1), 23.976 fps, AVC MPEG4 (x264), , ~1318 kbps avg, 0.124 bit/pixel
Аудио: 48 kHz, AC3 Dolby Digital, 2/0 (L,R) ch, ~192 kbps
General
Unique ID : 209962364591397752487849117130677579441 (0x9DF547CFE71285695A55CA5EBCF86EB1)
Complete name : C:\Users\Юрик\Desktop\Solo.A.Star.Wars.Story.2018.HDRip(AVC).1.45Gb_[tfile.ru].mkv
Format : Matroska
Format version : Version 2
File size : 1.45 GiB
Duration : 2h 14mn
Overall bit rate : 1 540 Kbps
Writing application : Lavf55.12.100
Writing library : Lavf55.12.100 / Lavf55.12.100

Video
ID : 2
Format : AVC
Format/Info : Advanced Video Codec
Format profile :
Format settings, CABAC : Yes
Format settings, ReFrames : 2 frames
Format settings, GOP : M=1, N=12
Codec ID : V_MPEG4/ISO/AVC
Duration : 2h 14mn
Bit rate : 1 318 Kbps
Width : 1 024 pixels
Height : 432 pixels
Display aspect ratio : 2.40:1
Frame rate mode : Constant
Frame rate : 23.976 (24000/1001) fps
Color space : YUV
Chroma subsampling : 4:2:0
Bit depth : 8 bits
Scan type : Progressive
Bits/(Pixel*Frame) : 0.124
Stream size : 1.24 GiB (86%)
Language : English
Default : Yes
Forced : No
Statistics Tags Issue : mkvmerge v7.4.0 ('Circles') 64bit built on Dec 12 2014 12:19:56 2018-09-13 20:18:37 / Lavf55.12.100
FromStats_BitRate : 1937346
FromStats_Duration : 02:14:46.704000000
FromStats_FrameCount : 193887
FromStats_StreamSize : 1958343507

Audio
ID : 1
Format : AC-3
Format/Info : Audio Coding 3
Mode extension : CM (complete main)
Format settings, Endianness : Big
Codec ID : A_AC3
Duration : 2h 14mn
Bit rate mode : Constant
Bit rate : 192 Kbps
Channel(s) : 2 channels
Channel positions : Front: L R
Sampling rate : 48.0 KHz
Frame rate : 31.250 fps (1536 spf)
Bit depth : 32 bits
Compression mode : Lossy
Stream size : 185 MiB (12%)
Default : Yes
Forced : No
Statistics Tags Issue : mkvmerge v7.4.0 ('Circles') 64bit built on Dec 12 2014 12:19:56 2018-09-13 20:18:37 / Lavf55.12.100
FromStats_BitRate : 192000
FromStats_Duration : 02:14:58.752000000
FromStats_FrameCount : 253086
FromStats_StreamSize : 194370048



















   Похожие торренты   Торрент   Размер 
В этой теме нет новых непрочитанных сообщений. Хан Соло: Звёздные Войны. Истории / Solo: A Star Wars Story (Рон Ховард) [2018, фантастика, фэнтези, боевик, приключения, HDRip-AVC] DUB / Фантастика

431 | 17

2.61 ГБ

В этой теме нет новых непрочитанных сообщений. Хан Соло: Звёздные Войны. Истории / Solo: A Star Wars Story (Рон Ховард) [2018, фантастика, фэнтези, боевик, приключения, HDRip] DUB / Фантастика

464 | 4

2.05 ГБ

В этой теме нет новых непрочитанных сообщений. Хан Соло: Звёздные Войны. Истории / Solo: A Star Wars Story (Рон Ховард) [2018, фантастика, фэнтези, боевик, приключения, HDRip] DUB / Фантастика

437 | 13

1.46 ГБ

В этой теме нет новых непрочитанных сообщений. Хан Соло: Звёздные Войны. Истории / Solo: A Star Wars Story (Рон Ховард) [2018, фантастика, фэнтези, боевик, приключения, HDRip] DUB / Фантастика

189 | 15

2.18 ГБ

В этой теме нет новых непрочитанных сообщений. Хан Соло: Звёздные Войны. Истории / Solo: A Star Wars Story (Рон Ховард) [2018, фантастика, фэнтези, боевик, приключения, HDRip] DUB / Фантастика

570 | 6

1.37 ГБ

В этой теме нет новых непрочитанных сообщений. Хан Соло: Звёздные Войны. Истории / Solo: A Star Wars Story (Рон Ховард) [2018, фантастика, фэнтези, боевик, приключения, HDRip-AVC] DUB / Фантастика

72 | 12

2.19 ГБ

В этой теме нет новых непрочитанных сообщений. Хан Соло: Звёздные Войны. Истории / Solo: A Star Wars Story (Рон Ховард) [2018, фантастика, фэнтези, боевик, приключения, BDRip] DUB / Фантастика

445 | 46

1.46 ГБ




Вы не можете начинать темы
Вы не можете отвечать на сообщения
Вы не можете редактировать свои сообщения
Вы не можете удалять свои сообщения
Вы не можете добавлять вложения

Перейти:  
 Вход
ppkBB3cker v.2 © 2008-2014 @ PPK
[ Time : 0.023s | 18 Queries | GZIP : Off ]

cron