img image001 image001 image001 image001 image001 image001 image001 image001 image001 image001 image001 image001 image001 image001 image001 image001

Planets Sun Sun Sun
Статистика раздачи
Автор: Снежана | Размер: 1.46 ГБ | Добавлен: 14 сен 2018
Раздают: 4    Качают: 0
Скачать торрент
Скачать торрент
Описание торрента

СообщениеДобавлено: 14 сен 2018 

Планета Ка-Пэкс / K-PAX


Перевод: Профессиональный (многоголосый закадровый), субтитры: отсутствуют
Формат: HDRip-AVC, MKV, H.264, AC3
Страна: США, Германия
Режиссер: Йен Софтли
Жанр: фантастика, драма
Продолжительность: 02:00:18
Год выпуска: 2001
В ролях: Кевин Спейси, Джефф Бриджес, Мэри Маккормак, Элфри Вудард, Дэвид Патрик Келли, Сауль Уильямс, Питер Герети, Селия Уэстон, Аджай Найду, Трэйси Вилар

Описание: В Манхэттенский психиатрический институт привозят странного человека в черных очках. Он зовет себя Протом и утверждает, что его родина - далекая планета Ка-Пэкс, откуда он мгновенно перенесся на Землю в луче света. Несмотря на все усилия, опытному доктору Пауэллу не удается разгадать загадку таинственного пациента, который охотно и весьма убедительно доказывает всем свое внеземное происхождение и заранее назначает дату своего возвращения на Ка-Пэкс. Вскоре Марка Пауэлла, так и не сумевшего приоткрыть тайну личности своего самого удивительного подопечного, начинает тревожить невероятная, но навязчивая мысль: может быть, Прот вовсе не сумасшедший и в его словах есть доля правды…



Видео: 1024x432 (2.40:1), 23.976 fps, AVC MPEG4 (x264), , ~1313 kbps avg, 0.124 bit/pixel
Аудио: 48 kHz, AC3 Dolby Digital, 3/2 (L,C,R,l,r) + LFE ch, ~384 kbps
General
Unique ID : 235957916955404378433064492799058940699 (0xB183D77F6A83D421D28E285B4EDE931B)
Complete name : C:\Users\Юрик\Desktop\K-PAX_2001_[tfile.ru].mkv
Format : Matroska
Format version : Version 2
File size : 1.46 GiB
Duration : 2h 0mn
Overall bit rate : 1 732 Kbps
Writing application : Lavf55.12.100
Writing library : Lavf55.12.100 / Lavf55.12.100

Video
ID : 2
Format : AVC
Format/Info : Advanced Video Codec
Format profile :
Format settings, CABAC : Yes
Format settings, ReFrames : 2 frames
Format settings, GOP : N=1
Codec ID : V_MPEG4/ISO/AVC
Duration : 2h 0mn
Bit rate : 1 313 Kbps
Width : 1 024 pixels
Height : 432 pixels
Display aspect ratio : 2.40:1
Frame rate mode : Constant
Frame rate : 23.976 (24000/1001) fps
Color space : YUV
Chroma subsampling : 4:2:0
Bit depth : 8 bits
Scan type : Progressive
Bits/(Pixel*Frame) : 0.124
Stream size : 1.10 GiB (76%)
Language : English
Default : Yes
Forced : No

Audio
ID : 1
Format : AC-3
Format/Info : Audio Coding 3
Mode extension : CM (complete main)
Format settings, Endianness : Big
Codec ID : A_AC3
Duration : 2h 0mn
Bit rate mode : Constant
Bit rate : 384 Kbps
Channel(s) : 6 channels
Channel positions : Front: L C R, Side: L R, LFE
Sampling rate : 48.0 KHz
Frame rate : 31.250 fps (1536 spf)
Bit depth : 32 bits
Compression mode : Lossy
Delay relative to video : 24ms
Stream size : 330 MiB (22%)
Default : Yes
Forced : No



















   Похожие торренты   Торрент   Размер 
В этой теме нет новых непрочитанных сообщений. Планета Ка-Пэкс / K-PAX (Иэн Софтли) [2001, фантастика, драма, HDRip-AVC] 2xMVO / Фантастика

11 | 3

2.9 ГБ

В этой теме нет новых непрочитанных сообщений. Планета Ка-Пэкс / K-PAX (2001) HDRip-AVC | iPad | P

110 | 25

2.24 ГБ

В этой теме нет новых непрочитанных сообщений. Планета Ка-Пэкс / K-Pax (2001) HDRip от Scarabey | P

637 | 26

1.46 ГБ

В этой теме нет новых непрочитанных сообщений. Планета Ка-Пэкс / K-Pax (2001) HDRip от MediaClub | КПК

70 | 13

543.82 МБ

В этой теме нет новых непрочитанных сообщений. Расхождение / Diverge (Джеймс Моррисон) [2016, фантастика, триллер, драма, HDRip] MVO / Фантастика

7 | 0

1.37 ГБ

В этой теме нет новых непрочитанных сообщений. Ловкость / Sleight (Джастин Диллард) [2017, фантастика, боевик, триллер, драма, HDRip] MVO / Фантастика

14 | 7

1.36 ГБ

В этой теме нет новых непрочитанных сообщений. Логан / Logan (Джеймс Мэнголд ) [2017, фантастика, боевик, триллер, драма, HDRip-AVC] DUB / Фантастика

7 | 6

2.19 ГБ




Вы не можете начинать темы
Вы не можете отвечать на сообщения
Вы не можете редактировать свои сообщения
Вы не можете удалять свои сообщения
Вы не можете добавлять вложения

Перейти:  
 Вход
ppkBB3cker v.2 © 2008-2014 @ PPK
[ Time : 0.026s | 16 Queries | GZIP : Off ]

cron