img image001 image001 image001 image001 image001 image001 image001 image001 image001 image001 image001 image001 image001 image001 image001 image001

Planets Sun Sun Sun
Статистика раздачи
Автор: Снежана | Размер: 2.14 ГБ | Добавлен: 14 сен 2018
Раздают: 138    Качают: 10
Скачать торрент
Скачать торрент
Описание торрента

СообщениеДобавлено: 14 сен 2018 

Убийца 2. Против всех / Sicario: Day of the Soldado / Sicario 2: Soldado

Перевод: Любительский (одноголосый) А.Важенин (BadBajo)
Субтитры: английские
Формат: WEB-DLRip-AVC, MKV, H.264, AC3
Страна: США, Италия
Режиссер: Стефано Соллима
Жанр: боевик, триллер, драма, криминал
Продолжительность: 02:02:23
Год выпуска: 2018

В ролях: Бенисио Дель Торо, Джош Бролин, Изабела Монер, Джеффри Донован, Кэтрин Кинер, Мануэль Рульфо, Мэттью Модайн, Шей Уигэм, Элиас Гарза, Ховард Фергюсон мл.

Описание: Обстановка на американо-мексиканской границе накаляется, когда наркокартели начинают переправлять в США террористов. Чтобы дать им отпор федеральный агент Мэтт Грейвер вынужден вновь объединиться с не самым надежным напарником — Алехандро.



Видео: 1024x424p (2.40:1), 23.976 fps, AVC MPEG-4 (H.264), ~1675 kbps, 0.161 bit/pixel
Аудио #1: Русский: 48 kHz, AC3 Dolby Digital, 6 ch, ~384 kbps [Любительский (одноголосый)]
Аудио #2: Английский: 48 kHz, AC3 Dolby Digital, 6 ch, ~448 kbps [Оригинал]

Формат : Matroska
Версия формата : Version 4 / Version 2
Размер файла : 2,14 Гбайт
Продолжительность : 2 ч. 2 м.
Общий поток : 2507 Кбит/сек
Название фильма : Sicario.Day.of.the.Soldado.2018 #TorpedoUK#
Дата кодирования : UTC 2018-09-14 09:29:18
Программа кодирования : mkvmerge v25.0.0 ('Prog Noir') 64-bit
Библиотека кодирования : libebml v1.3.6 + libmatroska v1.4.9
Обложка : Yes
Attachments : cover.jpg

Видео
Идентификатор : 1
Формат : AVC
Формат/Информация : Advanced Video Codec
Профиль формата :
Параметр CABAC формата : Да
Параметр ReFrames формата : 10 кадров
Идентификатор кодека : V_MPEG4/ISO/AVC
Продолжительность : 2 ч. 2 м.
Битрейт : 1675 Кбит/сек
Ширина : 1024 пикселя
Высота : 424 пикселя
Соотношение сторон : 2,40:1
Режим частоты кадров : Постоянный
Частота кадров : 23,976 (24000/1001) кадра/сек
Цветовое пространство : YUV
Субдискретизация насыщенности : 4:2:0
Битовая глубина : 8 бит
Тип развёртки : Прогрессивная
Бит/(Пиксели*Кадры) : 0.161
Размер потока : 1,43 Гбайт (67%)
Библиотека кодирования : x264 core 146 r2538 121396c
Настройки программы : cabac=1 / ref=10 / deblock=1:-3:-3 / analyse=0x3:0x113 / me=umh / subme=11 / psy=1 / psy_rd=0.97:0.05 / mixed_ref=1 / me_range=48 / chroma_me=1 / trellis=2 / 8x8dct=1 / cqm=0 / deadzone=21,11 / fast_pskip=1 / chroma_qp_offset=-3 / threads=6 / lookahead_threads=1 / sliced_threads=0 / nr=0 / decimate=1 / interlaced=0 / bluray_compat=0 / constrained_intra=0 / bframes=10 / b_pyramid=2 / b_adapt=2 / b_bias=0 / direct=3 / weightb=1 / open_gop=0 / weightp=2 / keyint=240 / keyint_min=23 / scenecut=40 / intra_refresh=0 / rc_lookahead=40 / rc=2pass / mbtree=0 / bitrate=1675 / ratetol=1.0 / qcomp=0.60 / qpmin=0 / qpmax=69 / qpstep=4 / cplxblur=20.0 / qblur=0.5 / vbv_maxrate=50000 / vbv_bufsize=62500 / nal_hrd=none / filler=0 / ip_ratio=1.40 / pb_ratio=1.30 / aq=1:1.00
Язык : English
Default : Да
Forced : Нет

Аудио #1
Идентификатор : 2
Формат : AC-3
Формат/Информация : Audio Coding 3
Расширение режима : CM (complete main)
Параметр Endianness формата : Big
Идентификатор кодека : A_AC3
Продолжительность : 2 ч. 2 м.
Вид битрейта : Постоянный
Битрейт : 384 Кбит/сек
Каналы : 6 каналов
Расположение каналов : Front: L C R, Side: L R, LFE
Частота : 48,0 КГц
Частота кадров : 31,250 кадров/сек (1536 spf)
Битовая глубина : 16 бит
Метод сжатия : С потерями
Размер потока : 336 Мбайт (15%)
Заголовок : VO [BadBajo]
Язык : Russian
Default : Да
Forced : Нет

Аудио #2
Идентификатор : 3
Формат : AC-3
Формат/Информация : Audio Coding 3
Расширение режима : CM (complete main)
Параметр Endianness формата : Big
Идентификатор кодека : A_AC3
Продолжительность : 2 ч. 2 м.
Вид битрейта : Постоянный
Битрейт : 448 Кбит/сек
Каналы : 6 каналов
Расположение каналов : Front: L C R, Side: L R, LFE
Частота : 48,0 КГц
Частота кадров : 31,250 кадров/сек (1536 spf)
Битовая глубина : 16 бит
Метод сжатия : С потерями
Размер потока : 392 Мбайт (18%)
Заголовок : [Original]
Язык : English
Default : Нет
Forced : Нет

Текст #1
Идентификатор : 4
Формат : UTF-8
Идентификатор кодека : S_TEXT/UTF8
Идентификатор кодека/Информация : UTF-8 Plain Text
Продолжительность : 1 ч. 52 м.
Битрейт : 24 бит/сек
Count of elements : 740
Размер потока : 19,9 Кбайт (0%)
Заголовок : Full
Язык : English
Default : Нет
Forced : Нет

Текст #2
Идентификатор : 5
Формат : UTF-8
Идентификатор кодека : S_TEXT/UTF8
Идентификатор кодека/Информация : UTF-8 Plain Text
Продолжительность : 2 ч. 1 м.
Битрейт : 32 бит/сек
Count of elements : 1176
Размер потока : 29,1 Кбайт (0%)
Заголовок : SDH
Язык : English
Default : Нет
Forced : Нет












   Похожие торренты   Торрент   Размер 
В этой теме нет новых непрочитанных сообщений. Убийца 2. Против всех / Sicario: Day of the Soldado / Sicario 2: Soldado (Стефано Соллима) [2018, боевик, триллер, драма, криминал, WEB-DLRip] AVO

142 | 7

1.46 ГБ

В этой теме нет новых непрочитанных сообщений. Убийца 2. Против всех / Sicario: Day of the Soldado / Sicario 2: Soldado (Стефано Соллима) [2018, боевик, триллер, драма, криминал, WEB-DLRip] AVO

15 | 3

748.75 МБ

В этой теме нет новых непрочитанных сообщений. Убийца 2. Против всех / Sicario: Day of the Soldado / Sicario 2: Soldado (Стефано Соллима) [2018, боевик, триллер, драма, криминал, WEB-DLRip-AVC] VO

86 | 17

745.16 МБ

В этой теме нет новых непрочитанных сообщений. Убийца 2. Против всех / Sicario: Day of the Soldado / Sicario 2: Soldado (Стефано Соллима) [2018, боевик, триллер, драма, криминал, WEB-DLRip-AVC] AVO

14 | 7

2.34 ГБ

В этой теме нет новых непрочитанных сообщений. Убийца 2. Против всех / Sicario: Day of the Soldado / Sicario 2: Soldado (Стефано Соллима) [2018, боевик, триллер, драма, криминал, BDRip] MVO

29 | 1

1.46 ГБ

В этой теме нет новых непрочитанных сообщений. Убийца 2. Против всех / Sicario: Day of the Soldado / Sicario 2: Soldado (Стефано Соллима) [2018, боевик, триллер, драма, криминал, WEBRip] DUB

29 | 0

2.05 ГБ

В этой теме нет новых непрочитанных сообщений. Убийца 2. Против всех / Sicario: Day of the Soldado / Sicario 2: Soldado (Стефано Соллима) [2018, боевик, триллер, драма, криминал, WEBRip-AVC] VO

32 | 7

1.45 ГБ




Вы не можете начинать темы
Вы не можете отвечать на сообщения
Вы не можете редактировать свои сообщения
Вы не можете удалять свои сообщения
Вы не можете добавлять вложения

Перейти:  
 Вход
ppkBB3cker v.2 © 2008-2014 @ PPK
[ Time : 0.030s | 16 Queries | GZIP : Off ]

cron