img image001 image001 image001 image001 image001 image001 image001 image001 image001 image001 image001 image001 image001 image001 image001 image001

Planets Sun Sun Sun
Статистика раздачи
Автор: Снежана | Размер: 1.46 ГБ | Добавлен: 14 сен 2018
Раздают: 5    Качают: 0
Скачать торрент
Скачать торрент
Описание торрента

СообщениеДобавлено: 14 сен 2018 

Белая мгла / Whiteout


Перевод: Профессиональный (полное дублирование), субтитры: отсутствуют
Формат: HDRip-AVC, MKV, H.264, AC3
Страна: США, Канада, Франция, Турция
Режиссер: Доминик Сена
Жанр: ужасы, боевик, триллер, криминал, детектив
Продолжительность: 01:40:40
Год выпуска: 2009
В ролях: Кейт Бекинсейл, Гэбриел Махт, Том Скерритт, Коламбус Шорт, Алекс О`Лафлин, Шон Дойл, Джоэль С. Келлер, Джесси Тодд, Артур Холден, Эрин Хиккок

Описание: На полярную базу «Амундсен — Скотт» прибывает самолет с федеральным приставом — Кэрри Стетко. Она планирует завершить все свои дела в Антарктиде и покинуть континент вместе с другими сотрудниками базы во время полной эвакуации перед полярной ночью, которая наступит через несколько дней. На базе её встречает старый знакомый, врач Джон Фьюри. Внезапно поступает сообщение об обнаруженном теле, предположительно, человека в нескольких километрах от базы. Пилот Дельфи, Джон и Кэрри незамедлительно отправляются на место для выяснения подробностей...



Видео: 1024x432 (2.40:1), 23.976 fps, AVC MPEG4 (x264), , ~1587 kbps avg, 0.150 bit/pixel
Аудио: 48 kHz, AC3 Dolby Digital, 3/2 (L,C,R,l,r) + LFE ch, ~448 kbps
General
Unique ID : 173996552607840811821979290560525119964 (0x82E6845FEDCCDE1E099CC188009231DC)
Complete name : C:\Users\Юрик\Desktop\Belaya.Mgla.2009.HDRip(AVC)_[tfile.ru].mkv
Format : Matroska
Format version : Version 2
File size : 1.46 GiB
Duration : 1h 40mn
Overall bit rate : 2 076 Kbps
Writing application : Lavf55.12.100
Writing library : Lavf55.12.100 / Lavf55.12.100

Video
ID : 2
Format : AVC
Format/Info : Advanced Video Codec
Format profile :
Format settings, CABAC : Yes
Format settings, ReFrames : 2 frames
Codec ID : V_MPEG4/ISO/AVC
Duration : 1h 40mn
Bit rate : 1 587 Kbps
Width : 1 024 pixels
Height : 432 pixels
Display aspect ratio : 2.40:1
Frame rate mode : Constant
Frame rate : 23.976 (24000/1001) fps
Color space : YUV
Chroma subsampling : 4:2:0
Bit depth : 8 bits
Scan type : Progressive
Bits/(Pixel*Frame) : 0.150
Stream size : 1.12 GiB (76%)
Title : potroks
Language : English
Default : Yes
Forced : No
Statistics Tags Issue : mkvmerge v7.4.0 ('Circles') 64bit built on Dec 12 2014 12:19:56 2018-09-14 06:39:40 / Lavf55.12.100
FromStats_BitRate : 4622470
FromStats_Duration : 01:40:39.284000000
FromStats_FrameCount : 144798
FromStats_StreamSize : 3489551838

Audio
ID : 1
Format : AC-3
Format/Info : Audio Coding 3
Mode extension : CM (complete main)
Format settings, Endianness : Big
Codec ID : A_AC3
Duration : 1h 40mn
Bit rate mode : Constant
Bit rate : 448 Kbps
Channel(s) : 6 channels
Channel positions : Front: L C R, Side: L R, LFE
Sampling rate : 48.0 KHz
Frame rate : 31.250 fps (1536 spf)
Bit depth : 32 bits
Compression mode : Lossy
Stream size : 323 MiB (22%)
Default : Yes
Forced : No
Statistics Tags Issue : mkvmerge v7.4.0 ('Circles') 64bit built on Dec 12 2014 12:19:56 2018-09-14 06:39:40 / Lavf55.12.100
FromStats_BitRate : 448000
FromStats_Duration : 01:40:39.296000000
FromStats_FrameCount : 188728
FromStats_StreamSize : 338200576



















   Похожие торренты   Торрент   Размер 
В этой теме нет новых непрочитанных сообщений. Угнать за 60 секунд / Gone in Sixty Seconds (Доминик Сена) [2000, боевик, триллер, криминал, BDRip] DUB / Боевики /Action

0 | 0

2.18 ГБ

В этой теме нет новых непрочитанных сообщений. Белая мгла / Whiteout (2009) HDRip-AVC от ExKinoRay | D

28 | 2

745.95 МБ

В этой теме нет новых непрочитанных сообщений. Белая мгла / Whiteout (2009) Blu-Ray EUR 1080p | D

3 | 3

24.36 ГБ

В этой теме нет новых непрочитанных сообщений. Белая мгла / Whiteout (2009) BDRip 720p | D, A

137 | 2

3.99 ГБ

В этой теме нет новых непрочитанных сообщений. Белая мгла / Whiteout (2009) BDRemux 1080p от NovaLan

10 | 10

29.3 ГБ

В этой теме нет новых непрочитанных сообщений. Белая мгла / Whiteout (2009) BDRip 1080p от NNNB

367 | 46

7.76 ГБ

В этой теме нет новых непрочитанных сообщений. Белая мгла / Whiteout (2009) BDRip 720p от HELLYWOOD | Лицензия

94 | 9

4.42 ГБ




Вы не можете начинать темы
Вы не можете отвечать на сообщения
Вы не можете редактировать свои сообщения
Вы не можете удалять свои сообщения
Вы не можете добавлять вложения

Перейти:  
 Вход
ppkBB3cker v.2 © 2008-2014 @ PPK
[ Time : 0.058s | 16 Queries | GZIP : Off ]

cron