img image001 image001 image001 image001 image001 image001 image001 image001 image001 image001 image001 image001 image001 image001 image001 image001

Planets Sun Sun Sun
Статистика раздачи
Автор: Снежана | Размер: 745.85 МБ | Добавлен: 14 сен 2018
Раздают: 28    Качают: 1
Скачать торрент
Скачать торрент
Описание торрента

СообщениеДобавлено: 14 сен 2018 

Защита от дурака / Foolproof

Перевод: Профессиональный (полное дублирование), cубтитры: Русские, английские
Формат: LowHDTVRip-AVC, MKV, H.264, AAC
Страна: Канада
Режиссер: Уильям Филлипс
Жанр: триллер, комедия, криминал
Продолжительность: 01:33:48
Год выпуска: 2003

В ролях: Райан Рейнольдс, Кристин Бут, Джорис Джарски, Шон Грегори Салливан, Тара Слоун, Су Гарай, Уильям Хаус, Вэй Чой, Джеймс Оллоди

Описание: Кевин, Саманта и Боб — члены частного клуба «Фулпрув» -занимаются разработкой технических способов защиты от грабежей и теоретическим осуществлением самых невыполнимых ограблений. В реальности же они не осуществили ни одного грабежа. Но все меняется, когда бандит Лео — криминальный авторитет, заполучает их план по краже бриллиантов и успешно осуществляет ограбление.
Он шантажирует горе-умников, угрожая выдать их как соучастников, требуя разработать план еще одного ограбления, где на кон поставлены 10 млн $. Теперь ребятам нужен не только тщательно разработанный план ограбления, но как никогда раньше надежный способ остаться в живых...




Видео: 752x408 (1.85:1), 23.976 fps, AVC (H.264), ~957 kbps, 0.130 bit/pixel
Аудио #1: Русский: 48 kHz, AАС-HE, 2 ch, ~76 kbps [Профессиональный (полное дублирование)]
Аудио #2: Русский: 48 kHz, AАС-HE, 2 ch, ~76 kbps [Профессиональный (многоголосый, закадровый)]

Формат : Matroska
Версия формата : Version 4 / Version 2
Размер файла : 746 Мбайт
Продолжительность : 1 ч. 33 м.
Общий поток : 1111 Кбит/сек
Дата кодирования : UTC 2018-09-14 04:35:21
Программа кодирования : mkvmerge v15.0.0 ('Duel with the Devil') 64-bit
Библиотека кодирования : libebml v1.3.5 + libmatroska v1.4.5

Видео
Идентификатор : 1
Формат : AVC
Формат/Информация : Advanced Video Codec
Профиль формата :
Параметр CABAC формата : Да
Параметр RefFrames формата : 12 кадров
Идентификатор кодека : V_MPEG4/ISO/AVC
Продолжительность : 1 ч. 33 м.
Битрейт : 957 Кбит/сек
Ширина : 752 пикселя
Высота : 408 пикселей
Соотношение сторон : 1,85:1
Режим частоты кадров : Постоянный
Частота кадров : 23,976 (24000/1001) кадра/сек
Цветовое пространство : YUV
Субдискретизация насыщенности : 4:2:0
Битовая глубина : 8 бит
Тип развёртки : Прогрессивная
Бит/(Пиксели*Кадры) : 0.130
Размер потока : 642 Мбайт (86%)
Библиотека кодирования : x264 core 152 r2851kMod ba24899
Настройки программы : cabac=1 / ref=12 / deblock=1:-3:-3 / analyse=0x3:0x133 / me=umh / subme=10 / psy=1 / fade_compensate=0.00 / psy_rd=1.00:0.14 / mixed_ref=1 / me_range=32 / chroma_me=1 / trellis=2 / 8x8dct=1 / cqm=0 / deadzone=21,11 / fast_pskip=0 / chroma_qp_offset=-3 / threads=6 / lookahead_threads=1 / sliced_threads=0 / nr=0 / decimate=0 / interlaced=0 / bluray_compat=0 / constrained_intra=0 / bframes=11 / b_pyramid=2 / b_adapt=2 / b_bias=0 / direct=3 / weightb=1 / open_gop=0 / weightp=2 / keyint=240 / keyint_min=23 / scenecut=40 / intra_refresh=0 / rc_lookahead=40 / rc=2pass / mbtree=1 / bitrate=957 / ratetol=1.0 / qcomp=0.60 / qpmin=0 / qpmax=69 / qpstep=4 / cplxblur=20.0 / qblur=0.5 / ip_ratio=1.40 / aq=3:1.00
Default : Да
Forced : Нет

Аудио #1
Идентификатор : 2
Формат : AAC
Формат/Информация : Advanced Audio Codec
Профиль формата : HE-AAC / LC
Идентификатор кодека : A_AAC
Продолжительность : 1 ч. 33 м.
Битрейт : 76,0 Кбит/сек
Каналы : 2 канала
Расположение каналов : Front: L R
Частота : 48,0 КГц / 24,0 КГц
Частота кадров : 23,438 кадра/сек (1024 SPF)
Метод сжатия : С потерями
Задержка видео : 31 мс.
Размер потока : 51,0 Мбайт (7%)
Язык : Russian
Default : Да
Forced : Нет

Аудио #2
Идентификатор : 3
Формат : AAC
Формат/Информация : Advanced Audio Codec
Профиль формата : HE-AAC / LC
Идентификатор кодека : A_AAC
Продолжительность : 1 ч. 33 м.
Битрейт : 76,0 Кбит/сек
Каналы : 2 канала
Расположение каналов : Front: L R
Частота : 48,0 КГц / 24,0 КГц
Частота кадров : 23,438 кадра/сек (1024 SPF)
Метод сжатия : С потерями
Задержка видео : 31 мс.
Размер потока : 51,0 Мбайт (7%)
Язык : Russian
Default : Нет
Forced : Нет

Текст #1
Идентификатор : 4
Формат : UTF-8
Идентификатор кодека : S_TEXT/UTF8
Идентификатор кодека/Информация : UTF-8 Plain Text
Продолжительность : 1 ч. 28 м.
Битрейт : 83 бит/сек
ElementCount : 838
Размер потока : 54,4 Кбайт (0%)
Язык : Russian
Default : Нет
Forced : Нет

Текст #2
Идентификатор : 5
Формат : UTF-8
Идентификатор кодека : S_TEXT/UTF8
Идентификатор кодека/Информация : UTF-8 Plain Text
Продолжительность : 1 ч. 28 м.
Битрейт : 66 бит/сек
ElementCount : 1205
Размер потока : 43,1 Кбайт (0%)
Язык : English
Default : Нет
Forced : Нет












   Похожие торренты   Торрент   Размер 
В этой теме нет новых непрочитанных сообщений. Защита от дурака / Foolproof (Уильям Филлипс) [2003, триллер, комедия, криминал, HDTVRip-AVC] DUB

18 | 0

1.93 ГБ

В этой теме нет новых непрочитанных сообщений. Плохие парни 2 / Bad Boys II (Майкл Бэй) [2003, боевик, триллер, драма, комедия, криминал, WEB-DLRip] 2xAVO

3 | 0

2.18 ГБ

В этой теме нет новых непрочитанных сообщений. Плохие парни 2 / Bad Boys II (Майкл Бэй) [4K Remastered] [2003, боевик, триллер, драма, комедия, криминал, HDRip] DUB / Боевики /Action

82 | 1

1.45 ГБ

В этой теме нет новых непрочитанных сообщений. Старски и Хатч / Starsky & Hutch (Тодд Филлипс) [2004, комедия, криминал, BDRip] DUB

10 | 0

1.46 ГБ

В этой теме нет новых непрочитанных сообщений. Пьяные матросы / Brothers in Arms (Калеб Дж. Филлипс) [2017, Триллер, комедия, WEBDLRip] MVO

0 | 1

1.37 ГБ

В этой теме нет новых непрочитанных сообщений. Парни со стволами / War Dogs (Тодд Филлипс) [Open Matte] [2016, драма, комедия, криминал, WEB-DLRip-AVC] DUB

5 | 0

2.22 ГБ

В этой теме нет новых непрочитанных сообщений. Парни со стволами / War Dogs (Тодд Филлипс) [Open Matte] [2016, драма, комедия, криминал, WEB-DLRip-AVC] DUB

5 | 0

747.14 МБ




Вы не можете начинать темы
Вы не можете отвечать на сообщения
Вы не можете редактировать свои сообщения
Вы не можете удалять свои сообщения
Вы не можете добавлять вложения

Перейти:  
 Вход
ppkBB3cker v.2 © 2008-2014 @ PPK
[ Time : 0.036s | 15 Queries | GZIP : Off ]

cron