img image001 image001 image001 image001 image001 image001 image001 image001 image001 image001 image001 image001 image001 image001 image001 image001

Planets Sun Sun Sun
Статистика раздачи
Автор: Снежана | Размер: 2.27 ГБ | Добавлен: 19 сен 2018
Раздают: 68    Качают: 5
Скачать торрент
Скачать торрент
Описание торрента

СообщениеДобавлено: 19 сен 2018 

Выжившая / Месть / Revenge

Перевод: Профессиональный (многоголосый, закадровый) iTunes
Субтитры: Русские, французские (вшитые) на иностранную речь
Формат: BDRip-AVC, MKV, H.264, AC3
Страна: Франция, Бельгия
Режиссер: Корали Фаржеа
Жанр: ужасы, боевик, триллер
Продолжительность: 01:48:07
Год выпуска: 2017

В ролях: Матильда Анна Ингрид Лутс, Кевин Дженссенс, Винсент Колумб, Гийом Бушед, Эвант Странгел

Описание: Молодая американка Дженифер проводит выходные с женатым французским бойфрендом в уединенном комфортабельном доме с бассейном. Внезапно раньше времени туда заявляются двое его друзей, с которыми он договорился поохотиться в уик-энд. Девушке стоило бы вести себя поскромнее в присутствии незнакомых мужчин, но желая разжечь страсть любовника, Дженифер слегка заигрывает с его другом.



Видео: 1024x428 (2.40:1), 24 fps, AVC MPEG-4 (H.264), ~2177 kbps, 0.207 bit/pixel
Аудио #1: Русский: 48 kHz, AC3 Dolby Digital, 3/2 (L,C,R,l,r) + LFE ch, ~384 kbps [Профессиональный (многоголосый, закадровый)]
Аудио #2: Французский: 48 kHz, AC3 Dolby Digital, 3/2 (L,C,R,l,r) + LFE ch, ~448 kbps [Оригинал]

Format : Matroska
Format version : Version 2
File size : 2.27 GiB
Duration : 1 h 48 min
Overall bit rate : 3 007 kb/s
Movie name : Revenge 2017 from ExKinoRay
Encoded date : UTC 2018-09-17 02:30:53
Writing application : mkvmerge v5.6.0 ('Kenya Kane') built on May 27 2012 16:44:04
Writing library : libebml v1.2.3 + libmatroska v1.3.0

Video
ID : 1
Format : AVC
Format/Info : Advanced Video Codec
Format profile :
Format settings, CABAC : Yes
Format settings, ReFrames : 12 frames
Codec ID : V_MPEG4/ISO/AVC
Duration : 1 h 48 min
Bit rate : 2 177 kb/s
Width : 1 024 pixels
Height : 428 pixels
Display aspect ratio : 2.40:1
Frame rate mode : Constant
Frame rate : 24.000 FPS
Color space : YUV
Chroma subsampling : 4:2:0
Bit depth : 8 bits
Scan type : Progressive
Bits/(Pixel*Frame) : 0.207
Stream size : 1.60 GiB (70%)
Title : Enigma
Writing library : x264 core 152 r2851 ba24899
Encoding settings : cabac=1 / ref=12 / deblock=1:-2:-2 / analyse=0x3:0x113 / me=umh / subme=11 / psy=1 / psy_rd=1.00:0.05 / mixed_ref=1 / me_range=32 / chroma_me=1 / trellis=2 / 8x8dct=1 / cqm=0 / deadzone=21,11 / fast_pskip=0 / chroma_qp_offset=-3 / threads=12 / lookahead_threads=3 / sliced_threads=0 / nr=0 / decimate=0 / interlaced=0 / bluray_compat=0 / constrained_intra=0 / bframes=12 / b_pyramid=2 / b_adapt=2 / b_bias=0 / direct=3 / weightb=1 / open_gop=0 / weightp=2 / keyint=240 / keyint_min=24 / scenecut=40 / intra_refresh=0 / rc_lookahead=40 / rc=2pass / mbtree=0 / bitrate=2177 / ratetol=1.0 / qcomp=0.60 / qpmin=0 / qpmax=51 / qpstep=4 / cplxblur=20.0 / qblur=0.5 / vbv_maxrate=50000 / vbv_bufsize=62500 / nal_hrd=none / filler=0 / ip_ratio=1.30 / pb_ratio=1.20 / aq=3:0.90
Language : English
Default : Yes
Forced : No
Color range : Limited
Color primaries : BT.709
Transfer characteristics : BT.709
Matrix coefficients : BT.709

Audio #1
ID : 2
Format : AC-3
Format/Info : Audio Coding 3
Mode extension : CM (complete main)
Format settings, Endianness : Big
Codec ID : A_AC3
Duration : 1 h 48 min
Bit rate mode : Constant
Bit rate : 384 kb/s
Channel(s) : 6 channels
Channel positions : Front: L C R, Side: L R, LFE
Sampling rate : 48.0 kHz
Frame rate : 31.250 FPS (1536 spf)
Compression mode : Lossy
Stream size : 297 MiB (13%)
Title : MVO (iTunes)
Default : Yes
Forced : No

Audio #2
ID : 3
Format : AC-3
Format/Info : Audio Coding 3
Mode extension : CM (complete main)
Format settings, Endianness : Big
Codec ID : A_AC3
Duration : 1 h 48 min
Bit rate mode : Constant
Bit rate : 448 kb/s
Channel(s) : 6 channels
Channel positions : Front: L C R, Side: L R, LFE
Sampling rate : 48.0 kHz
Frame rate : 31.250 FPS (1536 spf)
Compression mode : Lossy
Stream size : 346 MiB (15%)
Language : French
Default : No
Forced : No

Text
ID : 4
Format : UTF-8
Codec ID : S_TEXT/UTF8
Codec ID/Info : UTF-8 Plain Text
Language : Russian
Default : No
Forced : No

Menu
00:00:00.000 : en:00:00:00.000
00:08:59.917 : en:00:08:59.917
00:23:37.667 : en:00:23:37.667
00:37:34.875 : en:00:37:34.875
00:49:18.500 : en:00:49:18.500
00:58:00.750 : en:00:58:00.750
01:09:44.667 : en:01:09:44.667
01:27:11.500 : en:01:27:11.500
01:44:48.333 : en:01:44:48.333












   Похожие торренты   Торрент   Размер 
В этой теме нет новых непрочитанных сообщений. Выжившая / Месть / Revenge (Корали Фаржеа) [2017, ужасы, боевик, триллер, BDRip] MVO

15 | 0

1.41 ГБ

В этой теме нет новых непрочитанных сообщений. Месть / Revenge (Корали Фаржеа) [2017, Боевик, триллер, WEBDLRip] VO

12 | 0

1.45 ГБ

В этой теме нет новых непрочитанных сообщений. Месть / Revenge (Корали Фаржеа) [2017, боевик, триллер, WEB-DLRip-AVC] MVO

25 | 0

745.68 МБ

В этой теме нет новых непрочитанных сообщений. Месть / Revenge (Корали Фаржеа) [2017, боевик, триллер, WEB-DLRip-AVC] MVO

7 | 0

1.45 ГБ

В этой теме нет новых непрочитанных сообщений. Месть / Revenge (Корали Фаржеа) [2017, боевик, триллер, WEB-DLRip] MVO

66 | 0

1.46 ГБ

В этой теме нет новых непрочитанных сообщений. Месть / Revenge (Корали Фаржеа) [2017, боевик, триллер, WEBDLRip] VO

18 | 0

2.18 ГБ

В этой теме нет новых непрочитанных сообщений. Мохоки / Mohawk (Тед Гейган) [2017, ужасы, боевик, триллер, драма, история, HDRip] MVO

6 | 0

1.37 ГБ




Вы не можете начинать темы
Вы не можете отвечать на сообщения
Вы не можете редактировать свои сообщения
Вы не можете удалять свои сообщения
Вы не можете добавлять вложения

Перейти:  
 Вход
ppkBB3cker v.2 © 2008-2014 @ PPK
[ Time : 0.040s | 16 Queries | GZIP : Off ]

cron