img image001 image001 image001 image001 image001 image001 image001 image001 image001 image001 image001 image001 image001 image001 image001 image001

Planets Sun Sun Sun
Статистика раздачи
Автор: Снежана | Размер: 1.45 ГБ | Добавлен: 24 сен 2018
Раздают: 2    Качают: 1
Скачать торрент
Скачать торрент
Описание торрента

СообщениеДобавлено: 24 сен 2018 

Фобия / Haunted


Перевод: Профессиональный (полное дублирование) официальный звук [Марафон], субтитры: отсутствуют
Формат: WEBRip-AVC, MKV, H.264, AC3
Страна: Норвегия
Режиссер: Карл Кристиан Робе
Жанр: ужасы, триллер, драма, криминал
Продолжительность: 01:21:59
Год выпуска: 2017
В ролях: Йорунн Кьеллсби, Ян Альфред Сандвен, Пол Эспен Килстад, Роберт Скйэрстад, Эдуардо Гарсиа-Драгесет, Синневе Макоди Лунд, Ола Отнес, Кен Ведсегор, Сесиль Ёстад, Эбба Стинстрап

Описание: Кэтрин отправляется в поместье своего отца, которое досталось ей в наследство после его смерти. Женщина решает провести в нем какое-то время, наслаждаясь спокойствием. Но все происходит вовсе не так, как она это планировала. Здешние легенды полны ужаса по отношению к этому зловещему дому. Местные уверены, что в его стенах живет зло. Кэтрин вскоре сама чувствует на себе влияние чего-то потустороннего и демонического...



Видео: 1024x432 (2.40:1), 24 fps, AVC MPEG4 (x264), , ~2296 kbps avg, 0.216 bit/pixel
Аудио: 48 kHz, AC3 Dolby Digital, 2/0 (L,R) ch, ~192 kbps

РЕКЛАМЫ НЕТ !

General
Unique ID : 113433010921996767404395606091759555188 (0x5556673AD88F908A1D0D95C4B17F1274)
Format : Matroska
Format version : Version 2
File size : 1.45 GiB
Duration : 1h 21mn
Overall bit rate : 2 538 Kbps
Writing application : Lavf55.12.100
Writing library : Lavf55.12.100 / Lavf55.12.100

Video
ID : 2
Format : AVC
Format/Info : Advanced Video Codec
Format profile :
Format settings, CABAC : Yes
Format settings, ReFrames : 2 frames
Format settings, GOP : M=1, N=12
Codec ID : V_MPEG4/ISO/AVC
Duration : 1h 21mn
Bit rate : 2 296 Kbps
Width : 1 024 pixels
Height : 432 pixels
Display aspect ratio : 2.40:1
Frame rate mode : Constant
Frame rate : 24.000 fps
Color space : YUV
Chroma subsampling : 4:2:0
Bit depth : 8 bits
Scan type : Progressive
Bits/(Pixel*Frame) : 0.216
Stream size : 1.31 GiB (90%)
Language : Russian
Default : Yes
Forced : No
Statistics Tags Issue : mkvmerge v7.4.0 ('Circles') 64bit built on Dec 12 2014 12:19:56 2018-09-22 13:05:38 / Lavf55.12.100
FromStats_BitRate : 5116444
FromStats_Duration : 01:21:58.667000000
FromStats_FrameCount : 118048
FromStats_StreamSize : 3145760578

Audio
ID : 1
Format : AC-3
Format/Info : Audio Coding 3
Mode extension : CM (complete main)
Format settings, Endianness : Big
Codec ID : A_AC3
Duration : 1h 21mn
Bit rate mode : Constant
Bit rate : 192 Kbps
Channel(s) : 2 channels
Channel positions : Front: L R
Sampling rate : 48.0 KHz
Frame rate : 31.250 fps (1536 spf)
Bit depth : 32 bits
Compression mode : Lossy
Stream size : 113 MiB (8%)
Default : Yes
Forced : No
Statistics Tags Issue : mkvmerge v7.4.0 ('Circles') 64bit built on Dec 12 2014 12:19:56 2018-09-22 13:05:38 / Lavf55.12.100
FromStats_BitRate : 192000
FromStats_Duration : 01:21:58.784000000
FromStats_FrameCount : 153712
FromStats_StreamSize : 118050816

















   Похожие торренты   Торрент   Размер 
В этой теме нет новых непрочитанных сообщений. Фобия / Haunted (Карл Кристиан Робе) [2017, криминал, триллер, ужасы, драма, WEBDLRip] DUB

13 | 0

1.28 ГБ

В этой теме нет новых непрочитанных сообщений. Воскрешение / Resurrection (Рассел Малкэй) [1999, ужасы, триллер, драма, криминал, детектив, DVDRip] AVO / Мистика

198 | 13

1.33 ГБ

В этой теме нет новых непрочитанных сообщений. Сибирский потрошитель (Сергей Жизненный) [2016, ужасы, триллер, драма, WEBRip] / Мистика

24 | 0

1.37 ГБ

В этой теме нет новых непрочитанных сообщений. Сомния / Before I Wake (Майк Флэнеган) [2016, ужасы, мистика, триллер, драма, детектив, BDRip] DUB / Мистика

62 | 2

2.1 ГБ

В этой теме нет новых непрочитанных сообщений. Обитель теней / Marrowbone (Серхио Х. Санчес) [2017, ужасы, триллер, драма, BDRip] DUB / Мистика

11 | 0

745.4 МБ

В этой теме нет новых непрочитанных сообщений. Обитель теней / Marrowbone (Серхио Х. Санчес) [2017, ужасы, триллер, драма, BDRip] DUB / Мистика

12 | 2

2.18 ГБ

В этой теме нет новых непрочитанных сообщений. Обитель теней / Marrowbone (Серхио Х. Санчес) [2017, ужасы, триллер, драма, BDRip] DUB / Мистика

170 | 5

1.41 ГБ




Вы не можете начинать темы
Вы не можете отвечать на сообщения
Вы не можете редактировать свои сообщения
Вы не можете удалять свои сообщения
Вы не можете добавлять вложения

Перейти:  
 Вход
ppkBB3cker v.2 © 2008-2014 @ PPK
[ Time : 0.030s | 16 Queries | GZIP : Off ]

cron