img image001 image001 image001 image001 image001 image001 image001 image001 image001 image001 image001 image001 image001 image001 image001 image001

Planets Sun Sun Sun
Статистика раздачи
Автор: Снежана | Размер: 746.08 МБ | Добавлен: 24 сен 2018
Раздают: 3    Качают: 0
Скачать торрент
Скачать торрент
Описание торрента

СообщениеДобавлено: 24 сен 2018 

Побег из Нью-Йорка / Escape from New York

Перевод: Профессиональный (многоголосый, закадровый) ОРТ, cубтитры: русские, английские
Формат: BDRip-AVC, MKV, H.264, AAC
Страна: США, Великобритания
Режиссер: Джон Карпентер
Жанр: фантастика, боевик
Продолжительность: 01:39:11
Год выпуска: 1981

В ролях: Курт Рассел, Ли Ван Клиф, Эрнест Боргнайн, Дональд Плезенс, Айзек Хейз, Сизон Хабли, Гарри Дин Стэнтон, Эдриенн Барбо, Том Аткинс, Чарльз Сайферс

Описание: 997 год. Весь остров Манхэттен — одна большая тюрьма строгого режима. Много лет идет Третья мировая война. Президент захвачен группой революционеров и посажен в тюрьму. Ветеран войны Плисскен должен вызволить президента из этой зоны беспредельной жестокости, а времени у него очень мало. Если он не спасет президента в срок, то погибнет сам. Ему введен смертельный препарат, а противоядие он получит по возвращении.




Видео: 768x328 (2.35:1), 23.976 fps, AVC MPEG-4 (H.264), ~978 kbps, 0.162 bit/pixel
Аудио: 48 kHz, AАС-LC, 2 ch, ~72 kbps

Формат : Matroska
Версия формата : Version 4 / Version 2
Размер файла : 746 Мбайт
Продолжительность : 1 ч. 39 м.
Общий поток : 1052 Кбит/сек
Дата кодирования : UTC 2017-08-20 06:17:34
Программа кодирования : mkvmerge v13.0.0 ('The Juggler') 64bit
Библиотека кодирования : libebml v1.3.4 + libmatroska v1.4.5

Видео
Идентификатор : 1
Формат : AVC
Формат/Информация : Advanced Video Codec
Профиль формата :
Параметр CABAC формата : Да
Параметр RefFrames формата : 9 кадров
Идентификатор кодека : V_MPEG4/ISO/AVC
Продолжительность : 1 ч. 39 м.
Битрейт : 978 Кбит/сек
Ширина : 768 пикселей
Высота : 328 пикселей
Соотношение сторон : 2,35:1
Режим частоты кадров : Постоянный
Частота кадров : 23,976 (23976/1000) кадра/сек
Цветовое пространство : YUV
Субдискретизация насыщенности : 4:2:0
Битовая глубина : 8 бит
Тип развёртки : Прогрессивная
Бит/(Пиксели*Кадры) : 0.162
Размер потока : 693 Мбайт (93%)
Библиотека кодирования : x264 core 148 r2744 b97ae06
Настройки программы : cabac=1 / ref=9 / deblock=1:-2:-2 / analyse=0x3:0x113 / me=umh / subme=11 / psy=1 / psy_rd=1.00:0.20 / mixed_ref=1 / me_range=32 / chroma_me=1 / trellis=2 / 8x8dct=1 / cqm=0 / deadzone=21,11 / fast_pskip=0 / chroma_qp_offset=-3 / threads=6 / lookahead_threads=1 / sliced_threads=0 / nr=0 / decimate=0 / interlaced=0 / bluray_compat=0 / constrained_intra=0 / bframes=9 / b_pyramid=2 / b_adapt=2 / b_bias=0 / direct=3 / weightb=1 / open_gop=0 / weightp=2 / keyint=240 / keyint_min=23 / scenecut=40 / intra_refresh=0 / rc_lookahead=40 / rc=2pass / mbtree=0 / bitrate=978 / ratetol=1.0 / qcomp=0.60 / qpmin=0 / qpmax=69 / qpstep=4 / cplxblur=20.0 / qblur=0.5 / vbv_maxrate=50000 / vbv_bufsize=62500 / nal_hrd=none / filler=0 / ip_ratio=1.40 / pb_ratio=1.30 / aq=1:1.00
Default : Да
Forced : Нет

Аудио
Идентификатор : 2
Формат : AAC
Формат/Информация : Advanced Audio Codec
Профиль формата : LC
Идентификатор кодека : A_AAC
Продолжительность : 1 ч. 39 м.
Битрейт : 72,0 Кбит/сек
Каналы : 2 канала
Расположение каналов : Front: L R
Частота : 48,0 КГц
Частота кадров : 46,875 кадров/сек (1024 SPF)
Метод сжатия : С потерями
Размер потока : 51,1 Мбайт (7%)
Default : Да
Forced : Нет

Текст #1
Идентификатор : 3
Формат : UTF-8
Идентификатор кодека : S_TEXT/UTF8
Идентификатор кодека/Информация : UTF-8 Plain Text
Продолжительность : 1 ч. 33 м.
Битрейт : 52 бит/сек
ElementCount : 589
Размер потока : 35,9 Кбайт (0%)
Язык : Russian
Default : Да
Forced : Нет

Текст #2
Идентификатор : 4
Формат : UTF-8
Идентификатор кодека : S_TEXT/UTF8
Идентификатор кодека/Информация : UTF-8 Plain Text
Продолжительность : 1 ч. 31 м.
Битрейт : 39 бит/сек
ElementCount : 897
Размер потока : 26,4 Кбайт (0%)
Язык : English
Default : Нет
Forced : Нет












   Похожие торренты   Торрент   Размер 
В этой теме нет новых непрочитанных сообщений. Побег из Нью-Йорка / Escape from New York (Джон Карпентер) [1981, фантастика, боевик, BDRip] 2xMVO+AVO

0 | 0

1.99 ГБ

В этой теме нет новых непрочитанных сообщений. Побег из Нью-Йорка / Escape from New York (1981) BDRip 1080p Remastered | P, A

10 | 1

9.92 ГБ

В этой теме нет новых непрочитанных сообщений. Побег из Нью-Йорка и Лос-Анджелеса: Дилогия / Escape from New York & L.A. (1981/1996) BDRip 720p

415 | 185

7.68 ГБ

В этой теме нет новых непрочитанных сообщений. Нападение на 13-й участок / Assault on Precinct 13 (Джон Карпентер) [1976, боевик, триллер, криминал, BDRip-AVC] MVO+AVO

4 | 0

2.18 ГБ

В этой теме нет новых непрочитанных сообщений. Нечто / The Thing (Джон Карпентер) [1982, ужасы, фантастика, детектив, LowHDRip-AVC] 2xMVO

5 | 0

745.66 МБ

В этой теме нет новых непрочитанных сообщений. Побег из Нью-Йорка (1981) HDRip от Scarabey | P

112 | 8

751.04 МБ

В этой теме нет новых непрочитанных сообщений. Побег из Нью-Йорка (1981) HDRip от Scarabey | P

96 | 4

1.43 ГБ




Вы не можете начинать темы
Вы не можете отвечать на сообщения
Вы не можете редактировать свои сообщения
Вы не можете удалять свои сообщения
Вы не можете добавлять вложения

Перейти:  
 Вход
ppkBB3cker v.2 © 2008-2014 @ PPK
[ Time : 0.030s | 17 Queries | GZIP : Off ]

cron