img image001 image001 image001 image001 image001 image001 image001 image001 image001 image001 image001 image001 image001 image001 image001 image001

Planets Sun Sun Sun
Статистика раздачи
Автор: Снежана | Размер: 1.46 ГБ | Добавлен: 01 окт 2018
Раздают: 7    Качают: 0
Скачать торрент
Скачать торрент
Описание торрента

СообщениеДобавлено: 01 окт 2018 

Проклятие: Кукла ведьмы / Curse of the Witch's Doll


Перевод: Профессиональный (полное дублирование) Официальный звук, субтитры: отсутствуют
Формат: WEBDLRip-AVC, MKV, H.264, AC3
Страна: Великобритания
Режиссер: Лоуренс Фаулер
Жанр: ужасы
Продолжительность: 01:38:48
Год выпуска: 2018
В ролях: Хелен Кревел, Филип Риду, Клер Карреньо, Лайла Уоттс, Нил Хоббс, Клер Карреньо, Мишель Арчер, Роберт Анселл, Уильям Фрейзер, Лаура Джейнс, Итан Тейлор
Описание: После исчезновения дочери Аделина Грей сталкивается с полным безразличием новых соседей. Никто не верит в то, что дочь еще можно спасти. Она начинает подозревать, что инцидент связан с ужасной куклой, в которой заключено настоящее зло — в ней обитает дух ведьмы.



Видео: 1024x432 (2.40:1), 23.976 fps, AVC MPEG4 (x264), , ~1877 kbps avg, 0.177 bit/pixel
Аудио: 48 kHz, AC3 Dolby Digital, 2/0 (L,R) ch, ~192 kbps

РЕКЛАМЫ НЕТ !

General
Unique ID : 113912210069070705029152278965793444835 (0x55B2B19269BB129E83D88E6AB9D5D3E3)
Format : Matroska
Format version : Version 2
File size : 1.46 GiB
Duration : 1h 38mn
Overall bit rate : 2 111 Kbps
Writing application : Lavf55.12.100
Writing library : Lavf55.12.100 / Lavf55.12.100

Video
ID : 2
Format : AVC
Format/Info : Advanced Video Codec
Format profile :
Format settings, CABAC : Yes
Format settings, ReFrames : 2 frames
Format settings, GOP : M=1, N=12
Codec ID : V_MPEG4/ISO/AVC
Duration : 1h 38mn
Bit rate : 1 877 Kbps
Width : 1 024 pixels
Height : 432 pixels
Display aspect ratio : 2.40:1
Frame rate mode : Constant
Frame rate : 23.976 (24000/1001) fps
Color space : YUV
Chroma subsampling : 4:2:0
Bit depth : 8 bits
Scan type : Progressive
Bits/(Pixel*Frame) : 0.177
Stream size : 1.30 GiB (89%)
Title : Tapochek
Language : English
Default : Yes
Forced : No
Statistics Tags Issue : mkvmerge v7.4.0 ('Circles') 64bit built on Dec 12 2014 12:19:56 2018-09-29 11:08:53 / Lavf55.12.100
FromStats_BitRate : 4606962
FromStats_Duration : 01:38:48.333000000
FromStats_FrameCount : 142280
FromStats_StreamSize : 3413950894

Audio
ID : 1
Format : AC-3
Format/Info : Audio Coding 3
Mode extension : CM (complete main)
Format settings, Endianness : Big
Codec ID : A_AC3
Duration : 1h 38mn
Bit rate mode : Constant
Bit rate : 192 Kbps
Channel(s) : 2 channels
Channel positions : Front: L R
Sampling rate : 48.0 KHz
Frame rate : 31.250 fps (1536 spf)
Bit depth : 32 bits
Compression mode : Lossy
Stream size : 136 MiB (9%)
Default : Yes
Forced : No
Statistics Tags Issue : mkvmerge v7.4.0 ('Circles') 64bit built on Dec 12 2014 12:19:56 2018-09-29 11:08:53 / Lavf55.12.100
FromStats_BitRate : 192000
FromStats_Duration : 01:38:48.608000000
FromStats_FrameCount : 185269
FromStats_StreamSize : 142286592










   Похожие торренты   Торрент   Размер 
В этой теме нет новых непрочитанных сообщений. Проклятие: Кукла ведьмы / Curse of the Witch's Doll (Лоуренс Фаулер) [2018, ужасы, WEBDLRip] DUB

5 | 0

1.46 ГБ

В этой теме нет новых непрочитанных сообщений. Проклятие куклы Роберт / The Legend of Robert the Doll (Эндрю Джонс) [2018, ужасы, WEBDLRip] MVO

6 | 1

1.37 ГБ

В этой теме нет новых непрочитанных сообщений. Проклятье монахини / Curse of the Nun (Аарон Миртес) [2018, ужасы, WEBDLRip] MVO

269 | 19

1.37 ГБ

В этой теме нет новых непрочитанных сообщений. Проклятие куклы Роберт / The Curse of Robert the Doll (2016) HDRip | L

18 | 0

1.34 ГБ

В этой теме нет новых непрочитанных сообщений. Проклятие куклы Роберт / The Curse of Robert the Doll (2016) DVDRip | Дольский

1 | 0

1.35 ГБ

В этой теме нет новых непрочитанных сообщений. Проклятие куклы Роберт / The Curse of Robert the Doll (2016) BDRip 720р | L

22 | 0

2.44 ГБ

В этой теме нет новых непрочитанных сообщений. Проклятие монахини / The Nun (Корин Харди) [2018, ужасы, триллер, детектив, WEBDLRip] MVO

255 | 13

1.3 ГБ




Вы не можете начинать темы
Вы не можете отвечать на сообщения
Вы не можете редактировать свои сообщения
Вы не можете удалять свои сообщения
Вы не можете добавлять вложения

Перейти:  
 Вход
ppkBB3cker v.2 © 2008-2014 @ PPK
[ Time : 0.032s | 17 Queries | GZIP : Off ]

cron