img image001 image001 image001 image001 image001 image001 image001 image001 image001 image001 image001 image001 image001 image001 image001

Planets Sun Sun Sun

COVID-19 - Последняя информация о коронавирусе на сайте Минздрава


Статистика раздачи
Автор: Снежана | Размер: 700.84 МБ | Добавлен: 03 окт 2018
Раздают: 2    Качают: 2
Скачать торрент
Скачать торрент
Описание торрента

СообщениеДобавлено: 03 окт 2018 

Космические дети / The Space Children


Перевод: Любительский (одноголосый) [Трамвай-фильм], субтитры: отсутствуют
Формат: DVDRip, AVI, XviD, MP3
Страна: США
Режиссер: Джек Арнольд
Жанр: Фантастика, Семейный
Продолжительность: 01:08:01
Год выпуска: 1958
В ролях: Мишель Рэй, Адам Уильямс, Пэгги Вэббэр, Джонни Вэшбрук
Описание: В дали от глаз людских, американское правительство готовится запустить сверхновую ракету "Громовержец", для чего свозит на тайный полигон лучших специалистов с их семьями. Внезапно дети попадают под влияние некой силы, которая манипулирует ими. Каковы ее намерения и что будет с детьми?
Доп. информация: Довольно интересный фильм, почему-то не принятый зрителями.



Видео: 640x480 (4:3), 30.000 FPS, XviD MPEG-4 ~1 311 kb/s, 0.142 Bit/Pixel
Аудио: 44.1 kHz, MPEG Layer 3, 2 ch, ~128 kb/s
Video
ID : 1
Format : MPEG-4 Visual
Format profile : Simple@L3
Format settings, BVOP : No
Format settings, QPel : No
Format settings, GMC : No warppoints
Format settings, Matrix : Default (H.263)
Codec ID : V_MS/VFW/FOURCC / XVID
Codec ID/Hint : XviD
Duration : 1 h 8 min
Bit rate : 1 311 kb/s
Width : 640 pixels
Height : 480 pixels
Display aspect ratio : 4:3
Frame rate mode : Constant
Frame rate : 30.000 FPS
Color space : YUV
Chroma subsampling : 4:2:0
Bit depth : 8 bits
Scan type : Progressive
Compression mode : Lossy
Bits/(Pixel*Frame) : 0.142
Stream size : 638 MiB (91%)
Writing library : XviD 1.2.1 (UTC 2008-12-04)
Default : Yes
Forced : No

Audio
ID : 2
Format : MPEG Audio
Format version : Version 1
Format profile : Layer 3
Format settings : Joint stereo / MS Stereo
Codec ID : A_MPEG/L3
Codec ID/Hint : MP3
Duration : 1 h 8 min
Bit rate mode : Constant
Bit rate : 128 kb/s
Channel(s) : 2 channels
Sampling rate : 44.1 kHz
Frame rate : 38.281 FPS (1152 SPF)
Compression mode : Lossy
Stream size : 62.3 MiB (9%)
Writing library : LAME3.98.2
Language : Russian
Default : Yes
Forced : Yes







   Похожие торренты   Торрент   Размер 
В этой теме нет новых непрочитанных сообщений. Космические стражи / Space Sentinels (Хол Сатерлэнд) [1977, Приключения, фантастика, DVDRip] VO

5 | 0

2.86 ГБ

В этой теме нет новых непрочитанных сообщений. Серебряные иглы в небе / Дуэль в Космосе / Silver Needle in the Sky / Duel in Space (Холингсворт Морс ) [1954, фантастика, семейный , приключения, DVDRip]VO / Фантастика

1 | 0

780.77 МБ

В этой теме нет новых непрочитанных сообщений. Дети космического Грома / Space Thunder Kids (Элтон Рейнтс) [1991, фантастика, DVDRip]

2 | 0

618.8 МБ

В этой теме нет новых непрочитанных сообщений. Злой мозг из далекого космоса / Evil Brain From Outer Space (Тэуро Иший, Акира Митсува, Кореёши Акасака) [1964, Фантастика, Приключения, Семейный, DVDRip] VO

1 | 3

588.19 МБ

В этой теме нет новых непрочитанных сообщений. Дети тишины / Дети меньшего бога / Children of a Lesser God (1986) WEBRip 1080p | P2

7 | 3

12.31 ГБ

В этой теме нет новых непрочитанных сообщений. Облава в космосе / Manhunt in space (Холлингсворт Морс) [1956, фантастика, приключения, семейный, WEBRip] VO

1 | 1

725.62 МБ

В этой теме нет новых непрочитанных сообщений. Угроза из космоса / Menace from Outer Space (Холисворт Морс) [1954, Фантастика, Приключения, Семейный, TVRip] VO

3 | 0

895.89 МБ




Вы не можете начинать темы
Вы не можете отвечать на сообщения
Вы не можете редактировать свои сообщения
Вы не можете удалять свои сообщения
Вы не можете добавлять вложения

Перейти:  
Контактная информация: rstracker[пёсик]yandex.ru
 Вход
ppkBB3cker v.2 © 2008-2014 @ PPK
[ Time : 0.036s | 15 Queries | GZIP : Off ]

cron