img image001 image001 image001 image001 image001 image001 image001 image001 image001 image001 image001 image001 image001 image001 image001 image001

Planets Sun Sun Sun
Статистика раздачи
Автор: Снежана | Размер: 2.91 ГБ | Добавлен: 10 окт 2018
Раздают: 3    Качают: 0
Скачать торрент
Скачать торрент
Описание торрента

СообщениеДобавлено: 10 окт 2018 

Троцкий / The Trotsky

Перевод: Профессиональный (многоголосый, закадровый)
Субтитры: Русские, английские
Формат: HDRip-AVC, MKV, H.264, AC3
Страна: Канада
Режиссер: Джейкоб Тирни
Жанр: комедия
Продолжительность: 01:53:07
Год выпуска: 2009

В ролях: Лиэн Балабан, Джей Барушель, Тейлор Барушель, Дэн Бирн, Домини Блайт, Джонатан Боско, Хелен Буржуа Леклерк, Джастин Брэдли, Женевьев Бюжольд, Анна-Мари Кадьо

Описание: Леон Бронстейн изучает историю левых настроений в обществе и решает, что он — перевоплощение знаменитого революционера и переходит к конкретным действиям.
Он подговаривает рабочих своего отца, удачного бизнесмена, на «восстание и бунт». Отец принимает ответные меры и отправляет сына в государственную школу. Но и там Леон не сидит без дела, продолжая развивать бурную деятельность.




Видео: 1024x436p (2.35:1), 23.976 fps, AVC MPEG-4 (H.264), ~2781 kbps, 0.260 bit/pixel
Аудио #1: Русский: 48 kHz, AC3 Dolby Digital, 6 ch, ~448 kbps [Профессиональный (многоголосый, закадровый)]
Аудио #2: Английский: 48 kHz, AC3 Dolby Digital, 6 ch, ~448 kbps [Оригинал]

Format : Matroska
Format version : Version 4 / Version 2
File size : 2.91 GiB
Duration : 1 h 53 min
Overall bit rate : 3 679 kb/s
Movie name : The Trotsky (2009)
Encoded date : UTC 2018-09-27 11:12:27
Writing application : mkvmerge v27.0.0 ('Metropolis') 64-bit
Writing library : libebml v1.3.6 + libmatroska v1.4.9

Video
ID : 1
Format : AVC
Format/Info : Advanced Video Codec
Format profile :
Format settings, CABAC : Yes
Format settings, RefFrames : 9 frames
Codec ID : V_MPEG4/ISO/AVC
Duration : 1 h 53 min
Bit rate : 2 781 kb/s
Width : 1 024 pixels
Height : 436 pixels
Display aspect ratio : 2.35:1
Frame rate mode : Constant
Frame rate : 23.976 (24000/1001) FPS
Color space : YUV
Chroma subsampling : 4:2:0
Bit depth : 8 bits
Scan type : Progressive
Bits/(Pixel*Frame) : 0.260
Stream size : 2.20 GiB (76%)
Writing library : x264 core 155 r2901 7d0ff22
Encoding settings : cabac=1 / ref=9 / deblock=1:-3:-3 / analyse=0x3:0x113 / me=umh / subme=11 / psy=1 / psy_rd=1.00:0.00 / mixed_ref=1 / me_range=32 / chroma_me=1 / trellis=2 / 8x8dct=1 / cqm=0 / deadzone=21,11 / fast_pskip=1 / chroma_qp_offset=-4 / threads=6 / lookahead_threads=1 / sliced_threads=0 / nr=0 / decimate=1 / interlaced=0 / bluray_compat=0 / constrained_intra=0 / bframes=8 / b_pyramid=2 / b_adapt=2 / b_bias=0 / direct=1 / weightb=1 / open_gop=0 / weightp=2 / keyint=240 / keyint_min=23 / scenecut=40 / intra_refresh=0 / rc_lookahead=40 / rc=2pass / mbtree=1 / bitrate=2781 / ratetol=1.0 / qcomp=0.60 / qpmin=10 / qpmax=69 / qpstep=4 / cplxblur=20.0 / qblur=0.5 / vbv_maxrate=50000 / vbv_bufsize=62500 / nal_hrd=none / filler=0 / ip_ratio=1.40 / aq=1:0.90
Default : Yes
Forced : No

Audio #1
ID : 2
Format : AC-3
Format/Info : Audio Coding 3
Format settings, Endianness : Big
Codec ID : A_AC3
Duration : 1 h 53 min
Bit rate mode : Constant
Bit rate : 448 kb/s
Channel(s) : 6 channels
Channel positions : Front: L C R, Side: L R, LFE
Sampling rate : 48.0 kHz
Frame rate : 31.250 FPS (1536 SPF)
Bit depth : 16 bits
Compression mode : Lossy
Stream size : 362 MiB (12%)
Title : MVO
Language : Russian
Service kind : Complete Main
Default : Yes
Forced : No

Audio #2
ID : 3
Format : AC-3
Format/Info : Audio Coding 3
Format settings, Endianness : Big
Codec ID : A_AC3
Duration : 1 h 53 min
Bit rate mode : Constant
Bit rate : 448 kb/s
Channel(s) : 6 channels
Channel positions : Front: L C R, Side: L R, LFE
Sampling rate : 48.0 kHz
Frame rate : 31.250 FPS (1536 SPF)
Bit depth : 16 bits
Compression mode : Lossy
Stream size : 362 MiB (12%)
Title : Original
Language : English
Service kind : Complete Main
Default : No
Forced : No

Text #1
ID : 4
Format : UTF-8
Codec ID : S_TEXT/UTF8
Codec ID/Info : UTF-8 Plain Text
Duration : 1 h 47 min
Bit rate : 139 b/s
Count of elements : 1850
Stream size : 109 KiB (0%)
Language : Russian
Default : No
Forced : No

Text #2
ID : 5
Format : UTF-8
Codec ID : S_TEXT/UTF8
Codec ID/Info : UTF-8 Plain Text
Duration : 1 h 52 min
Bit rate : 80 b/s
Count of elements : 2093
Stream size : 66.4 KiB (0%)
Language : English
Default : No
Forced : No












   Похожие торренты   Торрент   Размер 
В этой теме нет новых непрочитанных сообщений. Троцкий / The Trotsky (2009) BDRip 1080p от Koenig | P

3 | 0

11.29 ГБ

В этой теме нет новых непрочитанных сообщений. Простушка / The DUFF (Эри Сандел) [2015, комедия, мелодрама, HDRip-AVC] DUB / Фильмы HDRip

2 | 1

2.47 ГБ

В этой теме нет новых непрочитанных сообщений. Общество мертвых поэтов / Dead Poets Society (Питер Уир) [1989, драма, комедия, HDRip-AVC] DUB+MVO+DVO+AVO / Фильмы HDRip

2 | 0

3.4 ГБ

В этой теме нет новых непрочитанных сообщений. Беглецы / Les fugitifs (Франсис Вебер) [1986, комедия, криминал, BDRip-AVC] DUB+DVO / Фильмы HDRip

0 | 1

2.18 ГБ

В этой теме нет новых непрочитанных сообщений. Семейное ограбление / Mes trеsors (Паскаль Бурдьо) [2017, комедия, BDRip-AVC] DUB / Фильмы HDRip

24 | 0

2.18 ГБ

В этой теме нет новых непрочитанных сообщений. Гибби / Gibby (Фил Горн) [2016, семейный, приключения, комедия, WEBDLRip-AVC] MVO / Фильмы HDRip

1 | 0

2.1 ГБ

В этой теме нет новых непрочитанных сообщений. Майор Пэйн / Major Payne (Ник Касл) [1995, комедия, приключения, BDRip-AVC] DVO+MVO / Фильмы HDRip

3 | 1

2.18 ГБ




Вы не можете начинать темы
Вы не можете отвечать на сообщения
Вы не можете редактировать свои сообщения
Вы не можете удалять свои сообщения
Вы не можете добавлять вложения

Перейти:  
 Вход
ppkBB3cker v.2 © 2008-2014 @ PPK
[ Time : 0.045s | 15 Queries | GZIP : Off ]

cron