img image001 image001 image001 image001 image001 image001 image001 image001 image001 image001 image001 image001 image001 image001 image001 image001

Planets Sun Sun Sun
Статистика раздачи
Автор: Снежана | Размер: 2.05 ГБ | Добавлен: 11 окт 2018
Раздают: 9    Качают: 0
Скачать торрент
Скачать торрент
Описание торрента

СообщениеДобавлено: 11 окт 2018 

Слепая злоба / Blind Malice
Оценка релиза: 

Перевод: Любительский (одноголосый) datynet; перевод: Куценко, субтитры: отсутствуют
Формат: WEBRip-AVC, MKV, H.264, MP3
Страна: США
Режиссер: Грэхэм Стритер / Graham Streeter
Жанр: триллер
Продолжительность: 01:22:55
Год выпуска: 2014
В ролях: Анджелина Прендергаст, Грейс Забриски, Грим Ханс-Кристиан Бернхофт, Тим Бэгли, Трэвис Росс, Джим Гибсон.
Описание: Карен, подросток с ослабленным зрением, вместе со своей бабушкой регулярно посещает семейную арендную собственность, чтобы прибраться в ней. Но всё выбивает из колеи, когда Карен оказывается в одиночестве и всплывают её детские воспоминания.



Видео: 1152x648 (16:9), 23.976 fps, MPEG4 Video (H264) ~ 2 279 kbps avg, 0.183 bit/ pixel
Аудио: 48 kHz, MPEG Layer 3, 2 ch, ~ 192 kbps avg
Доп. информация: Одна победа: Sacramento International Film Festival 2014



Format : Matroska
Format version : Version 4 / Version 2
File size : 2.05 GiB
Duration : 1 h 22 min
Overall bit rate : 2 379 kb/s
Encoded date : UTC 2018-10-10 12:33:25
Writing application : Lavf57.71.100
Writing library : Lavf57.71.100
ErrorDetectionType : Per level 1

Video
ID : 1
Format : AVC
Format/Info : Advanced Video Codec
Format profile :
Format settings, CABAC : Yes
Format settings, RefFrames : 2 frames
Codec ID : V_MPEG4/ISO/AVC
Duration : 1 h 22 min
Bit rate : 2 279 kb/s
Width : 1 152 pixels
Height : 648 pixels
Display aspect ratio : 16:9
Frame rate mode : Constant
Frame rate : 23.976 (24000/1001) FPS
Color space : YUV
Chroma subsampling : 4:2:0
Bit depth : 8 bits
Scan type : Progressive
Bits/(Pixel*Frame) : 0.183
Stream size : 1.90 GiB (93%)
Language : English
Default : Yes
Forced : No

Audio
ID : 2
Format : MPEG Audio
Format version : Version 1
Format profile : Layer 3
Mode : Joint stereo
Mode extension : MS Stereo
Codec ID : A_MPEG/L3
Codec ID/Hint : MP3
Duration : 1 h 22 min
Bit rate mode : Constant
Bit rate : 192 kb/s
Channel(s) : 2 channels
Sampling rate : 48.0 kHz
Compression mode : Lossy
Stream size : 114 MiB (5%)
Default : Yes
Forced : No













   Похожие торренты   Торрент   Размер 
В этой теме нет новых непрочитанных сообщений. Слепая / Blind (2014) HDRip | L1

526 | 65

1.37 ГБ

В этой теме нет новых непрочитанных сообщений. Сексуальная злоба / Sexual Malice (1994) DVD9 | A

0 | 0

4.51 ГБ

В этой теме нет новых непрочитанных сообщений. Сексуальная злоба / Sexual Malice (1994) DVDRip-AVC | A

103 | 46

1.46 ГБ

В этой теме нет новых непрочитанных сообщений. Сексуальная злоба / Sexual Malice (1994) DVDRip-AVC | A

0 | 0

2.81 ГБ

В этой теме нет новых непрочитанных сообщений. Сексуальная злоба / Sexual Malice (1994) DVDRip | A

67 | 9

1.37 ГБ

В этой теме нет новых непрочитанных сообщений. Сексуальная злоба / Sexual Malice (1994) DVDRip от KinoRay & Sheikn | A

1 | 0

700.15 МБ

В этой теме нет новых непрочитанных сообщений. Слепая ярость / Blind Fury (1989) HDRip-AVC от ImperiaFilm | D

33 | 5

744.41 МБ




Вы не можете начинать темы
Вы не можете отвечать на сообщения
Вы не можете редактировать свои сообщения
Вы не можете удалять свои сообщения
Вы не можете добавлять вложения

Перейти:  
 Вход
ppkBB3cker v.2 © 2008-2014 @ PPK
[ Time : 0.028s | 16 Queries | GZIP : Off ]

cron