img image001 image001 image001 image001 image001 image001 image001 image001 image001 image001 image001 image001 image001 image001 image001 image001

Planets Sun Sun Sun
Статистика раздачи
Автор: Снежана | Размер: 1.99 ГБ | Добавлен: 15 окт 2018
Раздают: 13    Качают: 2
Скачать торрент
Скачать торрент
Описание торрента

СообщениеДобавлено: 15 окт 2018 

Бои без правил / Предрассветная молитва / A Prayer Before Dawn

Перевод: Профессиональный (многоголосый, закадровый) HDRezka Studio
Субтитры: Русские, английские
Формат: BDRip-AVC, MKV, H.264, AC3
Страна: Франция, Великобритания, Камбоджа, США, Китай
Режиссер: Жан-Стефан Совер
Жанр: боевик, драма, криминал, биография, спорт
Продолжительность: 01:56:43
Год выпуска: 2017

В ролях: Джо Коул, Витхая Пансрингарм, Паня Йиммумрхай, Порнчанок Мабкланг, Николас Шейк, Билли Мур, Сура Сирмалай, Сакда Ниамхом, Сомлок Камсинг, Чалоемпорн Саватсук

Описание: Молодой британец Билли Мур попадает в одну из тюрем Тайланда, известную своей жестокостью и невыносимыми условиями для заключённых. Чтобы выжить, Билли решает заняться муай-тай - тайским боксом, одним из самых жёстких видов боевых искусств



Видео: 1024x430 (2.40:1), 23.976 fps, AVC MPEG-4 (H.264), ~1803 kbps, 0.171 bit/pixel
Аудио #1: Русский: 48 kHz, AC3 Dolby Digital, 2 ch, ~192 kbps [Профессиональный (многоголосый, закадровый)]
Аудио #2: Английский: 48 kHz, AC3 Dolby Digital, 6 ch, ~448 kbps [Оригинал]

Формат : Matroska
Версия формата : Version 4 / Version 2
Размер файла : 1,99 Гбайт
Продолжительность : 1 ч. 56 м.
Общий поток : 2444 Кбит/сек
Название фильма : A.Prayer.Before.Dawn.2017 #TorpedoUK#
Дата кодирования : UTC 2018-10-11 02:25:33
Программа кодирования : mkvmerge v25.0.0 ('Prog Noir') 64-bit
Библиотека кодирования : libebml v1.3.6 + libmatroska v1.4.9

Видео
Идентификатор : 1
Формат : AVC
Формат/Информация : Advanced Video Codec
Профиль формата :
Параметр CABAC формата : Да
Параметр ReFrames формата : 10 кадров
Идентификатор кодека : V_MPEG4/ISO/AVC
Продолжительность : 1 ч. 56 м.
Битрейт : 1803 Кбит/сек
Ширина : 1024 пикселя
Высота : 430 пикселей
Соотношение сторон : 2,40:1
Режим частоты кадров : Постоянный
Частота кадров : 23,976 (24000/1001) кадра/сек
Цветовое пространство : YUV
Субдискретизация насыщенности : 4:2:0
Битовая глубина : 8 бит
Тип развёртки : Прогрессивная
Бит/(Пиксели*Кадры) : 0.171
Размер потока : 1,47 Гбайт (74%)
Библиотека кодирования : x264 core 146 r2538 121396c
Настройки программы : cabac=1 / ref=10 / deblock=1:-3:-3 / analyse=0x3:0x113 / me=umh / subme=11 / psy=1 / psy_rd=0.99:0.04 / mixed_ref=1 / me_range=48 / chroma_me=1 / trellis=2 / 8x8dct=1 / cqm=0 / deadzone=21,11 / fast_pskip=1 / chroma_qp_offset=-3 / threads=6 / lookahead_threads=1 / sliced_threads=0 / nr=0 / decimate=1 / interlaced=0 / bluray_compat=0 / constrained_intra=0 / bframes=10 / b_pyramid=2 / b_adapt=2 / b_bias=0 / direct=3 / weightb=1 / open_gop=0 / weightp=2 / keyint=240 / keyint_min=23 / scenecut=40 / intra_refresh=0 / rc_lookahead=40 / rc=2pass / mbtree=0 / bitrate=1803 / ratetol=1.0 / qcomp=0.60 / qpmin=0 / qpmax=69 / qpstep=4 / cplxblur=20.0 / qblur=0.5 / vbv_maxrate=50000 / vbv_bufsize=62500 / nal_hrd=none / filler=0 / ip_ratio=1.40 / pb_ratio=1.30 / aq=1:1.00
Язык : English
Default : Да
Forced : Нет

Аудио #1
Идентификатор : 2
Формат : AC-3
Формат/Информация : Audio Coding 3
Расширение режима : CM (complete main)
Параметр Endianness формата : Big
Идентификатор кодека : A_AC3
Продолжительность : 1 ч. 56 м.
Вид битрейта : Постоянный
Битрейт : 192 Кбит/сек
Каналы : 2 канала
Расположение каналов : Front: L R
Частота : 48,0 КГц
Частота кадров : 31,250 кадров/сек (1536 spf)
Битовая глубина : 16 бит
Метод сжатия : С потерями
Размер потока : 160 Мбайт (8%)
Заголовок : MVO [HDRezka Studio]
Язык : Russian
Default : Да
Forced : Нет

Аудио #2
Идентификатор : 3
Формат : AC-3
Формат/Информация : Audio Coding 3
Расширение режима : CM (complete main)
Параметр Endianness формата : Big
Идентификатор кодека : A_AC3
Продолжительность : 1 ч. 56 м.
Вид битрейта : Постоянный
Битрейт : 448 Кбит/сек
Каналы : 6 каналов
Расположение каналов : Front: L C R, Side: L R, LFE
Частота : 48,0 КГц
Частота кадров : 31,250 кадров/сек (1536 spf)
Битовая глубина : 16 бит
Метод сжатия : С потерями
Размер потока : 374 Мбайт (18%)
Заголовок : [Original]
Язык : English
Default : Нет
Forced : Нет

Текст #1
Идентификатор : 4
Формат : UTF-8
Идентификатор кодека : S_TEXT/UTF8
Идентификатор кодека/Информация : UTF-8 Plain Text
Продолжительность : 1 ч. 50 м.
Битрейт : 17 бит/сек
Count of elements : 373
Размер потока : 14,2 Кбайт (0%)
Заголовок : Full
Язык : Russian
Default : Нет
Forced : Нет

Текст #2
Идентификатор : 5
Формат : UTF-8
Идентификатор кодека : S_TEXT/UTF8
Идентификатор кодека/Информация : UTF-8 Plain Text
Продолжительность : 1 ч. 48 м.
Битрейт : 10 бит/сек
Count of elements : 376
Размер потока : 8,28 Кбайт (0%)
Заголовок : Full
Язык : English
Default : Нет
Forced : Нет

Текст #3
Идентификатор : 6
Формат : UTF-8
Идентификатор кодека : S_TEXT/UTF8
Идентификатор кодека/Информация : UTF-8 Plain Text
Продолжительность : 1 ч. 50 м.
Битрейт : 12 бит/сек
Count of elements : 451
Размер потока : 9,88 Кбайт (0%)
Заголовок : SDH
Язык : English
Default : Нет
Forced : Нет

Меню
00:00:00.000 : en:Chapter 1
00:09:36.200 : en:Chapter 2
00:18:15.135 : en:Chapter 3
00:27:09.127 : en:Chapter 4
00:37:21.030 : en:Chapter 5
00:48:31.241 : en:Chapter 6
01:01:07.246 : en:Chapter 7
01:10:45.324 : en:Chapter 8
01:21:01.022 : en:Chapter 9
01:34:04.639 : en:Chapter 10
01:44:58.125 : en:Chapter 11
01:53:27.133 : en:Chapter 12












   Похожие торренты   Торрент   Размер 
В этой теме нет новых непрочитанных сообщений. Бои без правил / Предрассветная молитва / A Prayer Before Dawn (Жан-Стефан Совер) [2017, боевик, драма, криминал, биография, спорт, BDRip-AVC] DUB+MVO

28 | 0

2.31 ГБ

В этой теме нет новых непрочитанных сообщений. Бои без правил / Предрассветная молитва / A Prayer Before Dawn (Жан-Стефан Совер) [2017, боевик, драма, криминал, биография, спорт, BDRip] DUB

19 | 0

2.13 ГБ

В этой теме нет новых непрочитанных сообщений. Бои без правил / Предрассветная молитва / A Prayer Before Dawn (Жан-Стефан Совер) [2017, боевик, драма, криминал, биография, спорт, BDRip] MVO

55 | 0

1.46 ГБ

В этой теме нет новых непрочитанных сообщений. Бои без правил / Предрассветная молитва / A Prayer Before Dawn (Жан-Стефан Совер) [2017, боевик, драма, криминал, биография, спорт, LowHDRip] MVO

16 | 2

745.19 МБ

В этой теме нет новых непрочитанных сообщений. Бои без правил / Предрассветная молитва / A Prayer Before Dawn (Жан-Стефан Совер) [2017, боевик, драма, криминал, биография, спорт, WEB-DLRip] MVO

88 | 2

1.46 ГБ

В этой теме нет новых непрочитанных сообщений. Предрассветная молитва / A Prayer Before Dawn ( Жан-Стефан Совер) [2017, боевик, драма, криминал, биография, спорт, WEBDLRip] MVO / Боевики /Action

21 | 2

1.97 ГБ

В этой теме нет новых непрочитанных сообщений. Бои без правил / A Prayer Before Dawn (Жан-Стефан Совер ) [2017, боевик, драма, криминал, биография, спорт , BDRip] DUB

27 | 9

1.45 ГБ




Вы не можете начинать темы
Вы не можете отвечать на сообщения
Вы не можете редактировать свои сообщения
Вы не можете удалять свои сообщения
Вы не можете добавлять вложения

Перейти:  
 Вход
ppkBB3cker v.2 © 2008-2014 @ PPK
[ Time : 0.019s | 16 Queries | GZIP : Off ]

cron