img image001 image001 image001 image001 image001 image001 image001 image001 image001 image001 image001 image001 image001 image001 image001 image001

Planets Sun Sun Sun
Статистика раздачи
Автор: Снежана | Размер: 2.77 ГБ | Добавлен: 15 окт 2018
Раздают: 10    Качают: 0
Скачать торрент
Скачать торрент
Описание торрента

СообщениеДобавлено: 15 окт 2018 

Клетка / The Cell

Перевод: Профессиональный (полное дублирование)
Субтитры: Русские, английские
Формат: WEB-DLRip-AVC, MKV, H.264, AC3
Страна: США, Германия
Режиссер: Тарсем Синх
Жанр: ужасы, фантастика, триллер, драма
Продолжительность: 01:47:10
Год выпуска: 2000

В ролях: Дженнифер Лопез, Винс Вон, Винсент Д’Онофрио, Джейк Уэбер, Дилан Бейкер, Марианн Жан-Баптист, Патрик Бошо, Джерри Бекер, Тара Сабкофф, Кэтрин Сазерленд

Описание: Главная героиня фильма, психиатр, проникает в сознание серийного убийцы, находящегося в коме. На его счету уже почти десяток жертв, а жертвами, как правило, становятся молодые привлекательные девушки, которых маньяк истязает самым нечеловеческим образом, прежде чем лишить их жизни.
Последнюю похищенную им девушку пока так и не нашли, но есть надежда, что её ещё можно спасти. Однако для этого сначала надо внедриться в тёмные мозги психопата и выяснить, где же находится страшная камера пыток.




Видео: 1040x586 (16:9), 23.976 fps, AVC MPEG-4 (H.264), ~2801 kbps, 0.192 bit/pixel
Аудио #1: Русский: 48 kHz, AC3 Dolby Digital, 6 ch, ~384 kbps [Профессиональный (полное дублирование)]
Аудио #2: Русский: 48 kHz, AC3 Dolby Digital, 6 ch, ~448 kbps [Профессиональный (многоголосый, закадровый)]

Format : Matroska
Format version : Version 4
File size : 2.77 GiB
Duration : 1 h 47 min
Overall bit rate : 3 706 kb/s

Video
ID : 1
Format : AVC
Format/Info : Advanced Video Codec
Format profile :
Format settings : CABAC / 10 Ref Frames
Format settings, CABAC : Yes
Format settings, ReFrames : 10 frames
Codec ID : V_MPEG4/ISO/AVC
Duration : 1 h 47 min
Bit rate : 2 801 kb/s
Width : 1 040 pixels
Height : 586 pixels
Display aspect ratio : 16:9
Frame rate mode : Constant
Frame rate : 23.976 (24000/1001) FPS
Color space : YUV
Chroma subsampling : 4:2:0
Bit depth : 8 bits
Scan type : Progressive
Bits/(Pixel*Frame) : 0.192
Stream size : 2.10 GiB (76%)
Title : RIP_BY_-=DoMiNo=-
Writing library : x264 core 155 r2901M 7d0ff22
Encoding settings : cabac=1 / ref=10 / deblock=1:-3:-3 / analyse=0x3:0x133 / me=umh / subme=10 / psy=1 / psy_rd=1.08:0.00 / mixed_ref=1 / me_range=32 / chroma_me=1 / trellis=2 / 8x8dct=1 / cqm=0 / deadzone=21,11 / fast_pskip=1 / chroma_qp_offset=-2 / threads=6 / lookahead_threads=1 / sliced_threads=0 / nr=0 / decimate=1 / interlaced=0 / bluray_compat=0 / constrained_intra=0 / bframes=10 / b_pyramid=2 / b_adapt=2 / b_bias=0 / direct=1 / weightb=1 / open_gop=0 / weightp=2 / keyint=240 / keyint_min=24 / scenecut=40 / intra_refresh=0 / rc=crf / mbtree=0 / crf=19.0 / qcomp=0.70 / qpmin=0 / qpmax=69 / qpstep=4 / ip_ratio=1.40 / pb_ratio=1.30 / aq=1:1.00
Default : Yes
Forced : No

Audio #1
ID : 2
Format : AC-3
Format/Info : Audio Coding 3
Commercial name : Dolby Digital
Codec ID : A_AC3
Duration : 1 h 47 min
Bit rate mode : Constant
Bit rate : 384 kb/s
Channel(s) : 6 channels
Channel layout : L R C LFE Ls Rs
Sampling rate : 48.0 kHz
Frame rate : 31.250 FPS (1536 SPF)
Bit depth : 16 bits
Compression mode : Lossy
Stream size : 294 MiB (10%)
Title : RUS Dub Neva-1 / Gemini Film DD 5.1, 48 kHz, 384 kbps
Language : Russian
Service kind : Complete Main
Default : Yes
Forced : No

Audio #2
ID : 3
Format : AC-3
Format/Info : Audio Coding 3
Commercial name : Dolby Digital
Codec ID : A_AC3
Duration : 1 h 47 min
Bit rate mode : Constant
Bit rate : 448 kb/s
Channel(s) : 6 channels
Channel layout : L R C LFE Ls Rs
Sampling rate : 48.0 kHz
Frame rate : 31.250 FPS (1536 SPF)
Bit depth : 16 bits
Compression mode : Lossy
Stream size : 343 MiB (12%)
Title : RUS MVO R5 CP Digital DD 5.1, 48 kHz, 448 kbps
Language : Russian
Service kind : Complete Main
Default : No
Forced : No

Text #1
ID : 4
Format : UTF-8
Codec ID : S_TEXT/UTF8
Codec ID/Info : UTF-8 Plain Text
Title : RUS forced SRT/UTF8
Language : Russian
Default : Yes
Forced : No

Text #2
ID : 5
Format : UTF-8
Codec ID : S_TEXT/UTF8
Codec ID/Info : UTF-8 Plain Text
Title : RUS Dub SRT/UTF8
Language : Russian
Default : No
Forced : No

Text #3
ID : 6
Format : UTF-8
Codec ID : S_TEXT/UTF8
Codec ID/Info : UTF-8 Plain Text
Title : RUS R5 CP Digital SRT/UTF8
Language : Russian
Default : No
Forced : No

Text #4
ID : 7
Format : UTF-8
Codec ID : S_TEXT/UTF8
Codec ID/Info : UTF-8 Plain Text
Title : RUS fan Bound SRT/UTF8
Language : Russian
Default : No
Forced : No

Text #5
ID : 8
Format : UTF-8
Codec ID : S_TEXT/UTF8
Codec ID/Info : UTF-8 Plain Text
Title : RUS fan urbachs.de SRT/UTF8
Language : Russian
Default : No
Forced : No

Text #6
ID : 9
Format : UTF-8
Codec ID : S_TEXT/UTF8
Codec ID/Info : UTF-8 Plain Text
Title : ENG SRT/UTF8
Language : English
Default : No
Forced : No

Menu
00:00:00.000 : :Вступительные титры
00:06:40.233 : :Эдвард
00:12:44.764 : :Кукла
00:18:29.108 : :Новая жертва
00:26:28.587 : :Захват
00:34:32.904 : :Найти девушку
00:40:10.325 : :В его мире
00:47:55.873 : :Вера и реальность
00:56:04.736 : :Второй сеанс
01:01:30.687 : :Моя первая
01:07:47.063 : :На помощь
01:14:23.459 : :В ловушке
01:21:51.532 : :Я знаю где она
01:26:14.169 : :Спасение
01:32:09.733 : :Заключение
01:42:34.148 : :Финальные титры












   Похожие торренты   Торрент   Размер 
В этой теме нет новых непрочитанных сообщений. Клетка / The Cell (Тарсем Синх) [2000, ужасы, фантастика, триллер, драма, BDRip] MVO / Мистика

9 | 3

1.46 ГБ

В этой теме нет новых непрочитанных сообщений. Клетка / The Cell (Тарсем Синх) [2000, ужасы, фантастика, триллер, драма, BDRip-AVC] DUB / Мистика

11 | 3

1.46 ГБ

В этой теме нет новых непрочитанных сообщений. Ночное дежурство / Nightwatch (Уле Борнедаль) [Open Matte] [1997, ужасы, триллер, драма, WEB-DLRip-AVC] DVO / Фильмы HDRip

2 | 0

2.18 ГБ

В этой теме нет новых непрочитанных сообщений. Подъем с глубины / Deep Rising (Стивен Соммерс) [Open Matte] [1998, фантастика, боевик, ужасы, WEB-DLRip-AVC] MVO / Фильмы HDRip

5 | 1

2.18 ГБ

В этой теме нет новых непрочитанных сообщений. Призраки / Пронизывающий ветер / Wind Chill [Open Matte] (Грегори Джейкобс) [2007, ужасы, триллер, драма, WEB-DLRip] MVO

3 | 0

1.46 ГБ

В этой теме нет новых непрочитанных сообщений. Эквилибриум / Equilibrium (Курт Уиммер) [Open Matte] [2002, фантастика, боевик, триллер, драма, BDRip-AVC] DUB / Фантастика

9 | 0

1.46 ГБ

В этой теме нет новых непрочитанных сообщений. Страх и ненависть в Лас-Вегасе / Fear and Loathing in Las Vegas (Терри Гиллиам) [Open Matte] [1998, драма, комедия, WEB-DLRip-AVC] DUB+MVO+DVO / Фильмы HDRip

6 | 3

3.72 ГБ




Вы не можете начинать темы
Вы не можете отвечать на сообщения
Вы не можете редактировать свои сообщения
Вы не можете удалять свои сообщения
Вы не можете добавлять вложения

Перейти:  
 Вход
ppkBB3cker v.2 © 2008-2014 @ PPK
[ Time : 0.042s | 16 Queries | GZIP : Off ]

cron