img image001 image001 image001 image001 image001 image001 image001 image001 image001 image001 image001 image001 image001 image001 image001 image001

Planets Sun Sun Sun
Статистика раздачи
Автор: Снежана | Размер: 1.55 ГБ | Добавлен: 15 окт 2018
Раздают: 5    Качают: 1
Скачать торрент
Скачать торрент
Описание торрента

СообщениеДобавлено: 15 окт 2018 

Апостол / Apostle

Перевод: Любительский (двухголосый) LakeFilms
Субтитры: Русские, английские
Формат: WEB-DLRip-AVC, MKV, H.264, AC3
Страна: США, Великобритания
Режиссер: Гарет Эванс
Жанр: ужасы, триллер, детектив
Продолжительность: 02:10:00
Год выпуска: 2018

В ролях: Дэн Стивенс, Люси Бойнтон, Майкл Шин, Кристин Фросет, Билл Милнер, Марк Льюис Джонс, Элен Риз, Пол Хиггинс, Росс О’Хеннесси

Описание: 1905 год. Дженнифер Ричардсон похищена с целью получения выкупа поселившейся на отдаленном острове религиозной общиной. Последнее время у сектантов плохи дела с урожаем, и их лидер знает, что у Дженнифер имеется богатый отец. Но у девушки также есть и брат Томас, которого все считали погибшим, и который ни перед чем не остановится ради спасения сестры.



Видео: 900x374 (2.40:1), 24 fps, AVC MPEG-4 (H.264), ~1096 kbps, 0.136 bit/pixel
Аудио #1: Русский: 48 kHz, AC3 Dolby Digital, 2 ch, ~192 kbps [Любительский (двухголосый)]
Аудио #2: Английский: 48 kHz, AC3 Dolby Digital, 6 ch, ~384 kbps [Оригинал]


Format : Matroska
Format version : Version 2
File size : 1.55 GiB
Duration : 2 h 10 min
Overall bit rate : 1 706 kb/s
Movie name : Апостол (2018) WEB-DLRip-AVC_ivanes20031987
Encoded date : UTC 2018-10-13 17:51:00
Writing application : mkvmerge v4.4.0 ('Die Wiederkehr') сборка от Jan 3 2011 21:40:45
Writing library : libebml v1.0.0 + libmatroska v1.0.0
Cover : Yes
Attachments : cover.jpg
Video
ID : 1
Format : AVC
Format/Info : Advanced Video Codec
Format profile :
Format settings, CABAC : Yes
Format settings, RefFrames : 11 frames
Codec ID : V_MPEG4/ISO/AVC
Duration : 2 h 10 min
Bit rate : 1 096 kb/s
Width : 900 pixels
Height : 374 pixels
Display aspect ratio : 2.40:1
Frame rate mode : Constant
Frame rate : 24.000 FPS
Color space : YUV
Chroma subsampling : 4:2:0
Bit depth : 8 bits
Scan type : Progressive
Bits/(Pixel*Frame) : 0.136
Stream size : 1 019 MiB (64%)
Title : Rip by ivanes20031987
Writing library : x264 core 157 r2935 545de2f
Encoding settings : cabac=1 / ref=11 / deblock=1:-3:-3 / analyse=0x3:0x113 / me=umh / subme=10 / psy=1 / psy_rd=1.00:0.00 / mixed_ref=1 / me_range=32 / chroma_me=1 / trellis=2 / 8x8dct=1 / cqm=0 / deadzone=21,11 / fast_pskip=0 / chroma_qp_offset=-2 / threads=12 / lookahead_threads=2 / sliced_threads=0 / nr=0 / decimate=1 / interlaced=0 / bluray_compat=0 / constrained_intra=0 / bframes=11 / b_pyramid=2 / b_adapt=2 / b_bias=0 / direct=1 / weightb=1 / open_gop=0 / weightp=2 / keyint=240 / keyint_min=24 / scenecut=40 / intra_refresh=0 / rc_lookahead=60 / rc=crf / mbtree=0 / crf=17.9 / qcomp=0.60 / qpmin=0 / qpmax=69 / qpstep=4 / vbv_maxrate=50000 / vbv_bufsize=62500 / crf_max=0.0 / nal_hrd=none / filler=0 / ip_ratio=1.40 / pb_ratio=1.30 / aq=1:1.00
Default : Yes
Forced : No
Audio #1
ID : 2
Format : AC-3
Format/Info : Audio Coding 3
Format settings, Endianness : Big
Codec ID : A_AC3
Duration : 2 h 10 min
Bit rate mode : Constant
Bit rate : 192 kb/s
Channel(s) : 2 channels
Channel positions : Front: L R
Sampling rate : 48.0 kHz
Frame rate : 31.250 FPS (1536 SPF)
Bit depth : 16 bits
Compression mode : Lossy
Stream size : 179 MiB (11%)
Title : LakeFilms
Language : Russian
Service kind : Complete Main
Default : No
Forced : No
Audio #2
ID : 3
Format : AC-3
Format/Info : Audio Coding 3
Format settings, Endianness : Big
Codec ID : A_AC3
Duration : 2 h 10 min
Bit rate mode : Constant
Bit rate : 384 kb/s
Channel(s) : 6 channels
Channel positions : Front: L C R, Side: L R, LFE
Sampling rate : 48.0 kHz
Frame rate : 31.250 FPS (1536 SPF)
Bit depth : 16 bits
Compression mode : Lossy
Stream size : 357 MiB (23%)
Title : Original
Language : English
Service kind : Complete Main
Default : No
Forced : No
Text #1
ID : 4
Format : UTF-8
Codec ID : S_TEXT/UTF8
Codec ID/Info : UTF-8 Plain Text
Title : Full
Language : Russian
Default : No
Forced : No
Text #2
ID : 5
Format : UTF-8
Codec ID : S_TEXT/UTF8
Codec ID/Info : UTF-8 Plain Text
Title : Full
Language : English
Default : No
Forced : No












   Похожие торренты   Торрент   Размер 
В этой теме нет новых непрочитанных сообщений. Апостол / Apostle (Гарет Эванс) [2018, ужасы, триллер, детектив, WEB-DLRip-AVC] MVO

25 | 4

746.96 МБ

В этой теме нет новых непрочитанных сообщений. Апостол / Apostle (Гарет Эванс) [2018, ужасы, триллер, детектив, WEB-DLRip] MVO

32 | 4

2.18 ГБ

В этой теме нет новых непрочитанных сообщений. Апостол / Apostle (Гарет Эванс) [2018, ужасы, триллер, детектив, WEB-DLRip] MVO

11 | 2

2.18 ГБ

В этой теме нет новых непрочитанных сообщений. Апостол / Apostle (Гарет Эванс) [2018, ужасы, триллер, детектив, WEB-DLRip] MVO

69 | 4

1.46 ГБ

В этой теме нет новых непрочитанных сообщений. Апостол / Apostle (Гарет Эванс) [2018, ужасы, триллер, детектив, WEB-DLRip] MVO

23 | 0

1.46 ГБ

В этой теме нет новых непрочитанных сообщений. Апостол / Apostle (Гарет Эванс) [2018, ужасы, детектив, триллер, WEBDLRip] MVO

42 | 3

1.37 ГБ

В этой теме нет новых непрочитанных сообщений. Павел, апостол Христа / Paul, Apostle of Christ (Эндрю Хайатт) [2018, драма, история, BDRip] MVO

64 | 1

1.46 ГБ




Вы не можете начинать темы
Вы не можете отвечать на сообщения
Вы не можете редактировать свои сообщения
Вы не можете удалять свои сообщения
Вы не можете добавлять вложения

Перейти:  
 Вход
ppkBB3cker v.2 © 2008-2014 @ PPK
[ Time : 0.422s | 19 Queries | GZIP : Off ]

cron