img image001 image001 image001 image001 image001 image001 image001 image001 image001 image001 image001 image001 image001 image001 image001 image001

Planets Sun Sun Sun
Статистика раздачи
Автор: Снежана | Размер: 1.75 ГБ | Добавлен: 15 окт 2018
Раздают: 0    Качают: 1
Скачать торрент
Скачать торрент
Описание торрента

СообщениеДобавлено: 15 окт 2018 

Друзья по жизни / Друзья на всю жизнь / Закадычные друзья / Amici per la pelle


Перевод: Любительский (одноголосый) [Семен Ващенко]
Субтитры: русские [Тарас Котов], английские, испанские
Формат: DVDRip-AVC, MKV, H.264, AC3
Страна: Франция, Италия, Испания
Режиссер: Франко Росси
Жанр: драма, комедия
Продолжительность: 01:29:59
Год выпуска: 1955

В ролях: Джеронимо Мейньер, Андреа Шире, Вера Карми, Луиджи Този, Карло Тамберлани, Паоло Феррара, Марчелла Ровена, Леонильде Монтези, Игнацио Леоне, Мария Кьяра Беттинали

Описание: Фильм повествует о дружбе двух римских школьников: импульсивного кривляки Марио и слегка занудного педанта Франко. Марио легко относится к шуткам и вранью, тогда как Франко серьёзно воспринимает каждое слово и каждый поступок. И всё же столь непохожие по характеру мальчики находят друг в друге те положительные стороны, которые сближают их. Камнем преткновения становится спортивное соревнование, где им приходится соперничать. Выдержит ли их дружба эту проверку на прочность?


Видео: 704x576@768x576 (4:3), 25 fps, MPEG-4 AVC (x264) ~2343 kbps avg, 0.231 bit/pixel
Аудио #1: Русский: 48 kHz, AC3 Dolby Digital, 2/0 (L,R) ch, ~192 kbps avg [Любительский одноголосый]
Аудио #2: Итальянский: 48 kHz, AC3 Dolby Digital, 2/0 (L,R) ch, ~192 kbps avg [Оригинал]

Общее
Уникальный идентификатор : 176610642864509414311756043074173066164 (0x84DDF8F9A0D0E751BE762BBA9536DBB4)
Полное имя : Amici.Per.La.Pelle.1955.DVDRip.mkv
Формат : Matroska
Версия формата : Version 4 / Version 2
Размер файла : 1,75 Гбайт
Продолжительность : 1 ч. 29 м.
Общий поток : 2783 Кбит/сек
Дата кодирования : UTC 2017-03-25 12:59:11
Программа кодирования : mkvmerge v7.9.0 ('Birds') 64bit
Библиотека кодирования : libebml v1.3.1 + libmatroska v1.4.2
DURATION : 01:29:50.008000000
NUMBER_OF_FRAMES : 1325
NUMBER_OF_BYTES : 91475
_STATISTICS_WRITING_APP : mkvmerge v8.7.0 ('All of the above') 64bit
_STATISTICS_WRITING_DATE_UTC : 2016-06-21 15:45:13
_STATISTICS_TAGS : BPS DURATION NUMBER_OF_FRAMES NUMBER_OF_BYTES

Видео
Идентификатор : 1
Формат : AVC
Формат/Информация : Advanced Video Codec
Профиль формата : High@L4
Параметр CABAC формата : Да
Параметр ReFrames формата : 4 кадра
Идентификатор кодека : V_MPEG4/ISO/AVC
Продолжительность : 1 ч. 29 м.
Битрейт : 2343 Кбит/сек
Ширина : 704 пикселя
Высота : 576 пикселей
Соотношение сторон : 4:3
Режим частоты кадров : Постоянный
Частота кадров : 25,000 кадров/сек
Стандарт вещания : PAL
Цветовое пространство : YUV
Субдискретизация насыщенности : 4:2:0
Битовая глубина : 8 бит
Тип развёртки : Прогрессивная
Бит/(Пиксели*Кадры) : 0.231
Размер потока : 1,47 Гбайт (84%)
Библиотека кодирования : x264 core 128 r2216 198a7ea
Настройки программы : cabac=1 / ref=3 / deblock=1:0:0 / analyse=0x3:0x113 / me=hex / subme=7 / psy=1 / psy_rd=1.00:0.00 / mixed_ref=1 / me_range=16 / chroma_me=1 / trellis=1 / 8x8dct=1 / cqm=0 / deadzone=21,11 / fast_pskip=1 / chroma_qp_offset=-2 / threads=3 / lookahead_threads=1 / sliced_threads=0 / nr=0 / decimate=1 / interlaced=0 / bluray_compat=0 / constrained_intra=0 / bframes=3 / b_pyramid=2 / b_adapt=1 / b_bias=0 / direct=1 / weightb=1 / open_gop=0 / weightp=2 / keyint=100 / keyint_min=10 / scenecut=40 / intra_refresh=0 / rc_lookahead=40 / rc=crf / mbtree=1 / crf=20.0 / qcomp=0.60 / qpmin=0 / qpmax=69 / qpstep=4 / vbv_maxrate=20000 / vbv_bufsize=25000 / crf_max=0.0 / nal_hrd=none / ip_ratio=1.40 / aq=1:1.00
Default : Да
Forced : Нет

Аудио #1
Идентификатор : 2
Формат : AC-3
Формат/Информация : Audio Coding 3
Расширение режима : CM (complete main)
Параметр Endianness формата : Big
Идентификатор кодека : A_AC3
Продолжительность : 1 ч. 29 м.
Вид битрейта : Постоянный
Битрейт : 192 Кбит/сек
Каналы : 2 канала
Расположение каналов : Front: L R
Частота : 48,0 КГц
Метод сжатия : С потерями
Размер потока : 124 Мбайт (7%)
Язык : Russian
Default : Да
Forced : Нет

Аудио #2
Идентификатор : 3
Формат : AC-3
Формат/Информация : Audio Coding 3
Расширение режима : CM (complete main)
Параметр Endianness формата : Big
Идентификатор кодека : A_AC3
Продолжительность : 1 ч. 29 м.
Вид битрейта : Постоянный
Битрейт : 192 Кбит/сек
Каналы : 2 канала
Расположение каналов : Front: L R
Частота : 48,0 КГц
Метод сжатия : С потерями
Размер потока : 124 Мбайт (7%)
Язык : Italian
Default : Нет
Forced : Нет

Текст #1
Идентификатор : 4
Формат : UTF-8
Идентификатор кодека : S_TEXT/UTF8
Идентификатор кодека/Информация : UTF-8 Plain Text
Язык : Russian
Default : Да
Forced : Нет

Текст #2
Идентификатор : 5
Формат : UTF-8
Идентификатор кодека : S_TEXT/UTF8
Идентификатор кодека/Информация : UTF-8 Plain Text
Язык : English
Default : Нет
Forced : Нет

Текст #3
Идентификатор : 6
Формат : UTF-8
Идентификатор кодека : S_TEXT/UTF8
Идентификатор кодека/Информация : UTF-8 Plain Text
Язык : Spanish
Default : Нет
Forced : Нет











   Похожие торренты   Торрент   Размер 
В этой теме нет новых непрочитанных сообщений. Мои друзья / Amici miei (Пьетро Джерми, Марио Моничелли) [1975, драма, комедия, DVDRip] AVO + VO

0 | 0

2.19 ГБ

В этой теме нет новых непрочитанных сообщений. Мои друзья, часть 3 / Amici miei - Atto III° (Нанни Лой) [1985, комедия, DVDRip-AVC] AVO

0 | 0

2.74 ГБ

В этой теме нет новых непрочитанных сообщений. Мои друзья / Amici miei (Марио Моничелли) [1975, комедия, BDRip] AVO

0 | 6

1.46 ГБ

В этой теме нет новых непрочитанных сообщений. Дорогие друзья-приятели / Cari fottutissimi amici (1994) DVDRip Brazzass

1 | 4

1.45 ГБ

В этой теме нет новых непрочитанных сообщений. Лучшие друзья / Друзья по несчастью / Best Friends / Xin hua lu fang (2014) WEB-DLRip

25 | 2

1.46 ГБ

В этой теме нет новых непрочитанных сообщений. Возможные друзья / People You May Know (Шервин Шилати) [2017, драма, мелодрама, комедия, WEBDLRip] MVO / Драмы

3 | 0

1.39 ГБ

В этой теме нет новых непрочитанных сообщений. Друзья на всю жизнь / Vänner för livet (2013) DVDRip | L1

177 | 40

932.45 МБ




Вы не можете начинать темы
Вы не можете отвечать на сообщения
Вы не можете редактировать свои сообщения
Вы не можете удалять свои сообщения
Вы не можете добавлять вложения

Перейти:  
 Вход
ppkBB3cker v.2 © 2008-2014 @ PPK
[ Time : 0.080s | 15 Queries | GZIP : Off ]

cron