img image001 image001 image001 image001 image001 image001 image001 image001 image001 image001 image001 image001 image001 image001 image001 image001

Planets Sun Sun Sun
Статистика раздачи
Автор: Снежана | Размер: 2.91 ГБ | Добавлен: 15 окт 2018
Раздают: 27    Качают: 0
Скачать торрент
Скачать торрент
Описание торрента

СообщениеДобавлено: 15 окт 2018 

Слепые пятна / Blindspotting

Перевод: Профессиональный (полное дублирование) чистый звук
Субтитры: Отсутствуют
Формат: WEB-DLRip-AVC, MKV, H.264, AC3
Страна: США
Режиссер: Карлос Лопес Эстрада
Жанр: драма, комедия, криминал
Продолжительность: 01:35:24
Год выпуска: 2018

В ролях: Давид Диггс, Рафаель Касал, Янина Гаванкар, Жасмин Сепас Джонс, Итэн Эмбри, Тиша Кэмпбелл, Уткарш Амбудкар, Кевин Кэрролл, Ньямби Ньямби

Описание: Давид Диггс и Рафаэль Казаль, друзья по жизни, стали соавторами и звездами этой современной и дико занимательной истории о пересечении расы и положения в обществе, происходящей на фоне быстро облагораживающегося Окланда.



Видео: 1280x692p (1.85:1), 24 fps, AVC MPEG-4 (H.264), ~4000 kbps, 0.188 bit/pixel
Аудио: Русский: 48 kHz, AC3 Dolby Digital, 2 ch, ~384 kbps [Профессиональный (полное дублирование)]


Format : Matroska
Format version : Version 4 / Version 2
File size : 2.91 GiB
Duration : 1h 35mn
Overall bit rate : 4 361 Kbps
Movie name : Tapochek
Encoded date : UTC 2018-10-13 03:21:29
Writing application : mkvmerge v27.0.0 ('Metropolis') 64-bit
Writing library : Lavf57.71.100

Video
ID : 1
Format : AVC
Format/Info : Advanced Video Codec
Format profile :
Format settings, CABAC : Yes
Format settings, ReFrames : 4 frames
Codec ID : V_MPEG4/ISO/AVC
Duration : 1h 35mn
Bit rate : 4 000 Kbps
Width : 1 280 pixels
Height : 692 pixels
Display aspect ratio : 1.85:1
Frame rate mode : Constant
Frame rate : 24.000 fps
Color space : YUV
Chroma subsampling : 4:2:0
Bit depth : 8 bits
Scan type : Progressive
Bits/(Pixel*Frame) : 0.188
Stream size : 2.59 GiB (89%)
Title : Tapochek
Writing library : x264 core 155 r2901M 7d0ff22
Encoding settings : cabac=1 / ref=4 / deblock=1:0:0 / analyse=0x3:0x113 / me=umh / subme=9 / psy=1 / psy_rd=1.00:0.00 / mixed_ref=1 / me_range=16 / chroma_me=1 / trellis=2 / 8x8dct=1 / cqm=0 / deadzone=21,11 / fast_pskip=1 / chroma_qp_offset=-4 / threads=4 / lookahead_threads=3 / sliced_threads=0 / nr=0 / decimate=1 / interlaced=0 / bluray_compat=0 / constrained_intra=0 / bframes=3 / b_pyramid=2 / b_adapt=2 / b_bias=0 / direct=3 / weightb=1 / open_gop=0 / weightp=2 / keyint=250 / keyint_min=25 / scenecut=40 / intra_refresh=0 / rc_lookahead=50 / rc=abr / mbtree=1 / bitrate=4000 / ratetol=1.0 / qcomp=0.60 / qpmin=0 / qpmax=69 / qpstep=4 / ip_ratio=1.40 / aq=1:1.00
Language : English
Default : Yes
Forced : No
DURATION : 01:35:24.459000000
NUMBER_OF_FRAMES : 137387
NUMBER_OF_BYTES : 2844825494
_STATISTICS_WRITING_APP : mkvmerge v27.0.0 ('Metropolis') 64-bit
_STATISTICS_WRITING_DATE_UTC : 2018-10-13 03:21:29
_STATISTICS_TAGS : BPS DURATION NUMBER_OF_FRAMES NUMBER_OF_BYTES
Color primaries : BT.709
Transfer characteristics : BT.709
Matrix coefficients : BT.709

Audio
ID : 2
Format : AC-3
Format/Info : Audio Coding 3
Mode extension : CM (complete main)
Format settings, Endianness : Big
Codec ID : A_AC3
Duration : 1h 35mn
Bit rate mode : Constant
Bit rate : 384 Kbps
Channel(s) : 2 channels
Channel positions : Front: L R
Sampling rate : 48.0 KHz
Bit depth : 16 bits
Compression mode : Lossy
Stream size : 262 MiB (9%)
Title : DUB
Language : Russian
Default : Yes
Forced : No












   Похожие торренты   Торрент   Размер 
В этой теме нет новых непрочитанных сообщений. Слепые пятна / Blindspotting (Карлос Лопес Эстрада) [2018, драма, комедия, криминал, WEB-DLRip] DUB

17 | 3

749.41 МБ

В этой теме нет новых непрочитанных сообщений. Слепые пятна / Blindspotting (Карлос Лопес Эстрада) [2018, драма, комедия, криминал, WEB-DLRip] DUB

27 | 3

747.04 МБ

В этой теме нет новых непрочитанных сообщений. Слепые пятна / Blindspotting (Карлос Лопес Эстрада) [2018, драма, комедия, криминал, WEB-DLRip] DUB

31 | 0

1.46 ГБ

В этой теме нет новых непрочитанных сообщений. Слепые пятна / Blindspotting (Карлос Лопес Эстрада) [2018, драма, комедия, криминал, WEBDLRip] DUB

30 | 3

1.46 ГБ

В этой теме нет новых непрочитанных сообщений. Чёрный клановец / BlacKkKlansman (Спайк Ли) [2018, драма, комедия, криминал, биография, WEB-DLRip] DUB

205 | 8

1.37 ГБ

В этой теме нет новых непрочитанных сообщений. Чёрный клановец / BlacKkKlansman (Спайк Ли) [2018, драма, комедия, криминал, биография, WEBDLRip] DUB

61 | 3

2.05 ГБ

В этой теме нет новых непрочитанных сообщений. Бокс. Эмануэль Лопес – Карлос Падийя [21.03] (2015) HDTV 720p | 60 fps

15 | 19

2.96 ГБ




Вы не можете начинать темы
Вы не можете отвечать на сообщения
Вы не можете редактировать свои сообщения
Вы не можете удалять свои сообщения
Вы не можете добавлять вложения

Перейти:  
 Вход
ppkBB3cker v.2 © 2008-2014 @ PPK
[ Time : 0.038s | 17 Queries | GZIP : Off ]

cron