img image001 image001 image001 image001 image001 image001 image001 image001 image001 image001 image001 image001 image001 image001 image001 image001

Planets Sun Sun Sun
Статистика раздачи
Автор: Снежана | Размер: 2.19 ГБ | Добавлен: 16 окт 2018
Раздают: 11    Качают: 1
Скачать торрент
Скачать торрент
Описание торрента

СообщениеДобавлено: 16 окт 2018 

Город-бомба / Bomb City

Перевод: Профессиональный (многоголосый, закадровый) HDrezka Studio
Субтитры: Русские, английские
Формат: BDRip-AVC, MKV, H.264, AC3
Страна: США
Режиссер: Джэми Брукс
Жанр: драма, криминал
Продолжительность: 01:38:29
Год выпуска: 2017

В ролях: Дэйв Дэвис, Гленн Моршауэр, Логан Хаффман, Лорелей Линклейтер, Эдди Хэсселл, Доминик Райан Гэбриел, Люк Шелтон, Мэймэй Ренфроу, Майк Сэйтц

Описание: О культурной неприязни к группе панков в консервативном Техасе. Чем дальше заходит их борьба с ненавистью, тем больше она напоминает парад насилия и жестокости, ставя под вопрос моральные устои, на которых держится американское правосудие.



Видео: 1024x428 (2.40:1), 23.976 fps, AVC MPEG-4 (H.264), ~1907 kbps, 0.181 bit/pixel
Аудио #1: Русский: 48 kHz, AC3 Dolby Digital, 2 ch, ~384 kbps [Профессиональный (многоголосый, закадровый)]
Аудио #2: Русский: 48 kHz, AC3 Dolby Digital, 6 ch, ~448 kbps [Авторский (одноголосый)] М. Яроцкий (kyberpunk)
Аудио #3: Английский: 48 kHz, AC3 Dolby Digital, 6 ch, ~448 kbps [Оригинал]

Формат : Matroska
Версия формата : Version 4 / Version 2
Размер файла : 2,19 Гбайт
Продолжительность : 1 ч. 38 м.
Общий поток : 3190 Кбит/сек
Название фильма : Bomb.City.2017 #TorpedoUK#
Дата кодирования : UTC 2018-10-14 17:49:50
Программа кодирования : mkvmerge v25.0.0 ('Prog Noir') 64-bit
Библиотека кодирования : libebml v1.3.6 + libmatroska v1.4.9

Видео
Идентификатор : 1
Формат : AVC
Формат/Информация : Advanced Video Codec
Профиль формата :
Параметр CABAC формата : Да
Параметр ReFrames формата : 10 кадров
Идентификатор кодека : V_MPEG4/ISO/AVC
Продолжительность : 1 ч. 38 м.
Битрейт : 1907 Кбит/сек
Ширина : 1024 пикселя
Высота : 428 пикселей
Соотношение сторон : 2,40:1
Режим частоты кадров : Постоянный
Частота кадров : 23,976 (24000/1001) кадра/сек
Цветовое пространство : YUV
Субдискретизация насыщенности : 4:2:0
Битовая глубина : 8 бит
Тип развёртки : Прогрессивная
Бит/(Пиксели*Кадры) : 0.181
Размер потока : 1,31 Гбайт (60%)
Библиотека кодирования : x264 core 146 r2538 121396c
Настройки программы : cabac=1 / ref=10 / deblock=1:-2:-3 / analyse=0x3:0x113 / me=umh / subme=11 / psy=1 / psy_rd=0.97:0.07 / mixed_ref=1 / me_range=48 / chroma_me=1 / trellis=2 / 8x8dct=1 / cqm=0 / deadzone=21,11 / fast_pskip=1 / chroma_qp_offset=-3 / threads=6 / lookahead_threads=1 / sliced_threads=0 / nr=0 / decimate=1 / interlaced=0 / bluray_compat=0 / constrained_intra=0 / bframes=10 / b_pyramid=2 / b_adapt=2 / b_bias=0 / direct=3 / weightb=1 / open_gop=0 / weightp=2 / keyint=240 / keyint_min=23 / scenecut=40 / intra_refresh=0 / rc_lookahead=40 / rc=2pass / mbtree=0 / bitrate=1907 / ratetol=1.0 / qcomp=0.60 / qpmin=0 / qpmax=69 / qpstep=4 / cplxblur=20.0 / qblur=0.5 / vbv_maxrate=50000 / vbv_bufsize=62500 / nal_hrd=none / filler=0 / ip_ratio=1.40 / pb_ratio=1.30 / aq=1:1.00
Язык : English
Default : Да
Forced : Нет

Аудио #1
Идентификатор : 2
Формат : AC-3
Формат/Информация : Audio Coding 3
Расширение режима : CM (complete main)
Параметр Endianness формата : Big
Идентификатор кодека : A_AC3
Продолжительность : 1 ч. 38 м.
Вид битрейта : Постоянный
Битрейт : 384 Кбит/сек
Каналы : 2 канала
Расположение каналов : Front: L R
Частота : 48,0 КГц
Частота кадров : 31,250 кадров/сек (1536 spf)
Битовая глубина : 16 бит
Метод сжатия : С потерями
Размер потока : 270 Мбайт (12%)
Заголовок : MVO [HDRezka Studio]
Язык : Russian
Default : Да
Forced : Нет

Аудио #2
Идентификатор : 3
Формат : AC-3
Формат/Информация : Audio Coding 3
Расширение режима : CM (complete main)
Параметр Endianness формата : Big
Идентификатор кодека : A_AC3
Продолжительность : 1 ч. 38 м.
Вид битрейта : Постоянный
Битрейт : 448 Кбит/сек
Каналы : 6 каналов
Расположение каналов : Front: L C R, Side: L R, LFE
Частота : 48,0 КГц
Частота кадров : 31,250 кадров/сек (1536 spf)
Битовая глубина : 16 бит
Метод сжатия : С потерями
Размер потока : 316 Мбайт (14%)
Заголовок : AVO [Jarotskij]
Язык : Russian
Default : Нет
Forced : Нет

Аудио #3
Идентификатор : 4
Формат : AC-3
Формат/Информация : Audio Coding 3
Расширение режима : CM (complete main)
Параметр Endianness формата : Big
Идентификатор кодека : A_AC3
Продолжительность : 1 ч. 38 м.
Вид битрейта : Постоянный
Битрейт : 448 Кбит/сек
Каналы : 6 каналов
Расположение каналов : Front: L C R, Side: L R, LFE
Частота : 48,0 КГц
Частота кадров : 31,250 кадров/сек (1536 spf)
Битовая глубина : 16 бит
Метод сжатия : С потерями
Размер потока : 316 Мбайт (14%)
Заголовок : [Original]
Язык : English
Default : Нет
Forced : Нет

Текст #1
Идентификатор : 5
Формат : UTF-8
Идентификатор кодека : S_TEXT/UTF8
Идентификатор кодека/Информация : UTF-8 Plain Text
Продолжительность : 1 ч. 37 м.
Битрейт : 5 бит/сек
Count of elements : 109
Размер потока : 3,91 Кбайт (0%)
Заголовок : Forced
Язык : Russian
Default : Да
Forced : Нет

Текст #2
Идентификатор : 6
Формат : UTF-8
Идентификатор кодека : S_TEXT/UTF8
Идентификатор кодека/Информация : UTF-8 Plain Text
Продолжительность : 1 ч. 33 м.
Битрейт : 53 бит/сек
Count of elements : 1371
Размер потока : 37,1 Кбайт (0%)
Заголовок : Full
Язык : English
Default : Нет
Forced : Нет

Текст #3
Идентификатор : 7
Формат : UTF-8
Идентификатор кодека : S_TEXT/UTF8
Идентификатор кодека/Информация : UTF-8 Plain Text
Продолжительность : 1 ч. 38 м.
Битрейт : 65 бит/сек
Count of elements : 1742
Размер потока : 47,1 Кбайт (0%)
Заголовок : SDH
Язык : English
Default : Нет
Forced : Нет

Меню
00:00:00.000 : en:Chapter 1
00:10:02.560 : en:Chapter 2
00:19:26.540 : en:Chapter 3
00:31:25.508 : en:Chapter 4
00:45:07.246 : en:Chapter 5
00:56:28.593 : en:Chapter 6
01:06:48.254 : en:Chapter 7
01:16:41.054 : en:Chapter 8
01:26:23.928 : en:Chapter 9












   Похожие торренты   Торрент   Размер 
В этой теме нет новых непрочитанных сообщений. Город-бомба / Bomb City (Джэми Брукс) [2017, драма, криминал, LowHDRip] MVO / Драмы

3 | 0

744.92 МБ

В этой теме нет новых непрочитанных сообщений. Город-бомба / Bomb City (Джэми Брукс) [2017, Боевик, триллер, драма, криминал, вестерн, HDRip] MVO / Драмы

0 | 2

1.46 ГБ

В этой теме нет новых непрочитанных сообщений. Город-бомба / Bomb City (Джэми Брукс) [2017, драма, криминал, BDRip] AVO

4 | 0

1.46 ГБ

В этой теме нет новых непрочитанных сообщений. Город-бомба / Bomb City (Джэми Брукс) [2017, драма, криминал, LowHDRip] AVO

1 | 0

745.33 МБ

В этой теме нет новых непрочитанных сообщений. Город-бомба / Bomb City (Джэми Брукс) [2017, боевик, триллер, драма, криминал, вестерн, WEBDLRip] MVO

8 | 0

1.37 ГБ

В этой теме нет новых непрочитанных сообщений. Город и Город (1-2 серия из 4) / The City and the City (Том Шенклэнд) [2018, фэнтези, драма, криминал, детектив, WEBRip] MVO

7 | 0

1.37 ГБ

В этой теме нет новых непрочитанных сообщений. Город и Город (4 серии из 4) / The City and the City (Том Шенклэнд) [2018, фэнтези, драма, криминал, детектив, HDTVRip] MVO

16 | 0

3.6 ГБ




Вы не можете начинать темы
Вы не можете отвечать на сообщения
Вы не можете редактировать свои сообщения
Вы не можете удалять свои сообщения
Вы не можете добавлять вложения

Перейти:  
 Вход
ppkBB3cker v.2 © 2008-2014 @ PPK
[ Time : 0.018s | 15 Queries | GZIP : Off ]

cron