img image001 image001 image001 image001 image001 image001 image001 image001 image001 image001 image001 image001 image001 image001 image001 image001

Planets Sun Sun Sun
Статистика раздачи
Автор: Снежана | Размер: 1.45 ГБ | Добавлен: 16 окт 2018
Раздают: 11    Качают: 3
Скачать торрент
Скачать торрент
Описание торрента

СообщениеДобавлено: 16 окт 2018 

Противостояние / The One


Перевод: Профессиональный (полное дублирование), субтитры: отсутствуют
Формат: HDRip-AVC, MKV, H.264, AC3
Страна: США
Режиссер: Джеймс Вонг
Жанр: фантастика, боевик, триллер
Продолжительность: 01:27:18
Год выпуска: 2001
В ролях: Джет Ли, Карла Гуджино, Джейсон Стэтхэм, Делрой Линдо, Марк Бочард

Описание: Что делать, если твой мир рушится, когда в него вторгается безжалостный пришелец из параллельных миров? Стремясь стать сверхчеловеком, агент Межпространственного Бюро Расследований Габриель Юло совершает головокружительное сафари по параллельным мирам, охотясь за своими двойниками. Силы его растут с каждой новой жертвой, их жизненная энергия аккумулируется в нём, наделяя его невероятными способностями. Никто не знает, что случится с хрупким равновесием вселенных, если Габриель достигнет своей цели - уничтожить всех двойников. Его мечта уже почти становится реальностью, когда на пути Юло становится Гэйб - полицейский из Лос-Анджелеса...



Видео: 1024x432 (2.40:1), 23.976 fps, AVC MPEG4 (x264), , ~1910 kbps avg, 0.180 bit/pixel
Аудио: 48 kHz, AC3, 3/2 (L,C,R,l,r) + LFE ch, ~448.00 kbps avg
General
Unique ID : 236445949587236301885378652495512380080 (0xB1E1D55D3C546CE1743CFA625328A2B0)
Complete name : C:\Users\123\Desktop\Protivostoyanie.2001.HDRip(AVC)_[tfile.ru].mkv
Format : Matroska
Format version : Version 4 / Version 2
File size : 1.45 GiB
Duration : 1h 28mn
Overall bit rate mode : Constant
Overall bit rate : 2 352 Kbps
Movie name : Противостояние (2001) BDRip (1080p)
Encoded date : UTC 2018-10-15 13:44:52
Writing application : Lavf56.36.100
Writing library : Lavf56.36.100

Video
ID : 2
Format : AVC
Format/Info : Advanced Video Codec
Format profile :
Format settings, CABAC : Yes
Format settings, ReFrames : 2 frames
Codec ID : V_MPEG4/ISO/AVC
Duration : 1h 28mn
Bit rate mode : Constant
Bit rate : 1 910 Kbps
Width : 1 024 pixels
Height : 432 pixels
Display aspect ratio : 2.40:1
Frame rate mode : Constant
Frame rate : 23.976 fps
Color space : YUV
Chroma subsampling : 4:2:0
Bit depth : 8 bits
Scan type : Progressive
Bits/(Pixel*Frame) : 0.180
Stream size : 1.15 GiB (79%)
Title : Release by Alex260680
Language : English
Default : Yes
Forced : No
DURATION : 01:28:29.721000000
NUMBER_OF_FRAMES : 127306
NUMBER_OF_BYTES : 4268115726
_STATISTICS_WRITING_APP : mkvmerge v7.4.0 ('Circles') 64bit built on Dec 12 2014 12:19:56
_STATISTICS_WRITING_DATE_UTC : 2018-10-15 13:44:52
_STATISTICS_TAGS : BPS DURATION NUMBER_OF_FRAMES NUMBER_OF_BYTES

Audio
ID : 1
Format : AC-3
Format/Info : Audio Coding 3
Mode extension : CM (complete main)
Format settings, Endianness : Big
Codec ID : A_AC3
Duration : 1h 28mn
Bit rate mode : Constant
Bit rate : 448 Kbps
Channel(s) : 6 channels
Channel positions : Front: L C R, Side: L R, LFE
Sampling rate : 48.0 KHz
Bit depth : 16 bits
Compression mode : Lossy
Stream size : 284 MiB (19%)
Default : Yes
Forced : No
DURATION : 01:27:18.112000000
NUMBER_OF_FRAMES : 163691
NUMBER_OF_BYTES : 293334272
_STATISTICS_WRITING_APP : mkvmerge v7.4.0 ('Circles') 64bit built on Dec 12 2014 12:19:56
_STATISTICS_WRITING_DATE_UTC : 2018-10-15 13:44:52
_STATISTICS_TAGS : BPS DURATION NUMBER_OF_FRAMES NUMBER_OF_BYTES












   Похожие торренты   Торрент   Размер 
В этой теме нет новых непрочитанных сообщений. Логан / Logan (Джеймс Мэнголд ) [2017, фантастика, боевик, триллер, драма, HDRip-AVC] DUB / Фантастика

7 | 6

2.19 ГБ

В этой теме нет новых непрочитанных сообщений. Видок / Vidocq (Питоф) [2001, фантастика, боевик, триллер, криминал, детектив, HDRip-AVC] DUB / Фантастика

3 | 0

1.45 ГБ

В этой теме нет новых непрочитанных сообщений. Логан / Logan (Джеймс Мэнголд) [2017, фантастика, боевик, триллер, драма, BDRip-AVC] DUB / Фантастика

17 | 5

2.46 ГБ

В этой теме нет новых непрочитанных сообщений. Логан / Logan (Джеймс Мэнголд) [2017, фантастика, боевик, триллер, драма, BDRip] DUB / Фантастика

468 | 15

1.46 ГБ

В этой теме нет новых непрочитанных сообщений. Логан / Logan (Джеймс Мэнголд) [2017, фантастика, боевик, триллер, драма, BDRip-AVC] DUB / Фантастика

14 | 4

2.95 ГБ

В этой теме нет новых непрочитанных сообщений. Логан / Logan (Джеймс Мэнголд) [2017, фантастика, боевик, триллер, драма, BDRip-AVC] DUB / Фантастика

39 | 6

1.52 ГБ

В этой теме нет новых непрочитанных сообщений. Логан / Logan (Джеймс Мэнголд) [2017, фантастика, боевик, триллер, драма, BDRip] DUB / Фантастика

19 | 6

2.18 ГБ




Вы не можете начинать темы
Вы не можете отвечать на сообщения
Вы не можете редактировать свои сообщения
Вы не можете удалять свои сообщения
Вы не можете добавлять вложения

Перейти:  
 Вход
ppkBB3cker v.2 © 2008-2014 @ PPK
[ Time : 0.032s | 16 Queries | GZIP : Off ]

cron